[ISO] Due West Our Sex Journay 3D 2012 BluRay 1080p AVC TrueHD5.1-CHDBits ~ Nhất lộ hướng tây

Thảo luận trong 'Bluray nguyên gốc' bắt đầu bởi adm820, 4/9/19.

  1. adm820

    adm820 Uploader

    Tham gia ngày:
    1/12/10
    Bài viết:
    5,416
    Đã được cảm ơn:
    120,221
    Điểm thành tích:
    113
    Giới tính:
    Nam
    Tiền:
    6,607 CR
    [​IMG]


    upload_2019-9-4_19-16-36.png


    Mã:
    General
    Complete name                  : G:\\BDMV\PLAYLIST\00002.mpls
    
    
    	

    Format : Blu-ray Playlist

    File size : 706 Bytes Duration : 1 h 58 min Overall bit rate mode : Variable Overall bit rate : 1 b/s Video ID : 4114 (0x1012) / 4113 (0x1011) Menu ID : 1 (0x1) Format : AVC Format/Info : Advanced Video Codec Format profile : Stereo High@L4.1 / High@L4.1 Format settings : CABAC / 4 Ref Frames Format settings, CABAC : Yes Format settings, Reference fra : 4 frames Format settings, GOP : M=3, N=24 Codec ID : 27 Duration : 1 h 58 min Bit rate mode : Variable Bit rate : 42.7 Mb/s / 30.8 Mb/s Maximum bit rate : 30.0 Mb/s Width : 1 920 pixels Height : 1 080 pixels Display aspect ratio : 16:9 Frame rate : 23.976 (24000/1001) FPS Standard : NTSC Color space : YUV Chroma subsampling : 4:2:0 Bit depth : 8 bits Scan type : Progressive Bits/(Pixel*Frame) : 0.860 Stream size : 25.6 GiB Color range : Limited Color primaries : BT.709 Transfer characteristics : BT.709 Matrix coefficients : BT.709 format_identifier : HDMV Source : 00004.m2ts / 00003.m2ts Audio #1 ID : 4352 (0x1100) Menu ID : 1 (0x1) Format : AC-3 Format/Info : Audio Coding 3 Commercial name : Dolby Digital Muxing mode : Stream extension Codec ID : 131 Duration : 1 h 58 min Bit rate mode : Variable Bit rate : 640 kb/s Maximum bit rate : 4 278 kb/s Channel(s) : 6 channels Channel layout : L R C LFE Ls Rs Sampling rate : 96.0 kHz / 48.0 kHz Frame rate : 31.250 FPS (1536 SPF) Bit depth : 16 bits Compression mode : Lossy Stream size : 544 MiB Language : Chinese Service kind : Complete Main bsid : 6 dialnorm : -31 dialnorm : -31 dB compr : -0.28 compr : -0.28 dB acmod : 7 lfeon : 1 dialnorm_Average : -31 dialnorm_Average : -31 dB dialnorm_Minimum : -31 dialnorm_Minimum : -31 dB dialnorm_Maximum : -31 dialnorm_Maximum : -31 dB dialnorm_Count : 1400 compr_Average : -4.20 compr_Average : -4.20 dB compr_Minimum : -11.02 compr_Minimum : -11.02 dB compr_Maximum : -0.56 compr_Maximum : -0.56 dB compr_Count : 906 format_identifier : AC-3 Source : 00003.m2ts Audio #2 ID : 4353 (0x1101) Menu ID : 1 (0x1) Format : AC-3 Format/Info : Audio Coding 3 Commercial name : Dolby Digital Muxing mode : Stream extension Codec ID : 131 Duration : 1 h 58 min Bit rate mode : Variable Bit rate : 640 kb/s Maximum bit rate : 4 542 kb/s Channel(s) : 6 channels Channel layout : L R C LFE Ls Rs Sampling rate : 96.0 kHz / 48.0 kHz Frame rate : 31.250 FPS (1536 SPF) Bit depth : 16 bits Compression mode : Lossy Stream size : 544 MiB Language : Chinese Service kind : Complete Main bsid : 6 dialnorm : -31 dialnorm : -31 dB compr : -0.28 compr : -0.28 dB acmod : 7 lfeon : 1 dialnorm_Average : -31 dialnorm_Average : -31 dB dialnorm_Minimum : -31 dialnorm_Minimum : -31 dB dialnorm_Maximum : -31 dialnorm_Maximum : -31 dB dialnorm_Count : 1400 compr_Average : -5.55 compr_Average : -5.55 dB compr_Minimum : -14.91 compr_Minimum : -14.91 dB compr_Maximum : -0.56 compr_Maximum : -0.56 dB compr_Count : 1059 dynrng_Average : -0.21 dynrng_Average : -0.21 dB dynrng_Minimum : -3.45 dynrng_Minimum : -3.45 dB dynrng_Maximum : 0.00 dynrng_Maximum : 0.00 dB dynrng_Count : 1386 format_identifier : AC-3 Source : 00003.m2ts Text #1 ID : 4608 (0x1200) Menu ID : 1 (0x1) Format : PGS Codec ID : 144 Duration : 1 h 58 min Language : Chinese Source : 00003.m2ts Text #2 ID : 4609 (0x1201) Menu ID : 1 (0x1) Format : PGS Codec ID : 144 Duration : 1 h 58 min Language : Chinese Source : 00003.m2ts Text #3 ID : 4610 (0x1202) Menu ID : 1 (0x1) Format : PGS Codec ID : 144 Duration : 1 h 58 min Language : Chinese Source : 00003.m2ts Text #4 ID : 4611 (0x1203) Menu ID : 1 (0x1) Format : PGS Codec ID : 144 Duration : 1 h 58 min Language : English Source : 00003.m2ts Menu 00:00:00.000 : Chapter 1 00:06:17.835 : Chapter 2 00:12:31.709 : Chapter 3 00:16:39.790 : Chapter 4 00:24:18.707 : Chapter 5 00:30:31.287 : Chapter 6 00:37:16.567 : Chapter 7 00:43:03.956 : Chapter 8 00:48:39.625 : Chapter 9 00:53:56.483 : Chapter 10 01:00:29.459 : Chapter 11 01:08:00.201 : Chapter 12 01:11:58.230 : Chapter 13 01:18:51.309 : Chapter 14 01:24:20.472 : Chapter 15 01:32:31.796 : Chapter 16 01:38:03.794 : Chapter 17 01:43:54.645 : Chapter 18 01:49:30.564 : Chapter 19 01:56:19.806 : Chapter 20 01:58:46.786 : Chapter 21

    [​IMG] [​IMG] [​IMG] [​IMG] [​IMG] [​IMG] [​IMG]
     
    #1 +2 CR
  2. adm820

    adm820 Uploader

    Tham gia ngày:
    1/12/10
    Bài viết:
    5,416
    Đã được cảm ơn:
    120,221
    Điểm thành tích:
    113
    Giới tính:
    Nam
    Tiền:
    6,607 CR
    Phim có nội dung người lớn , khán giả cân nhắc trước khi xem

    Link tải

    Nhấn nút Cảm ơn (dưới chân bài) để thấy link!
     
    #2 +1 CR
    UyenMinh, hoabinh77, mccn and 71 others like this.
  3. adm820

    adm820 Uploader

    Tham gia ngày:
    1/12/10
    Bài viết:
    5,416
    Đã được cảm ơn:
    120,221
    Điểm thành tích:
    113
    Giới tính:
    Nam
    Tiền:
    6,607 CR
  4. hqtung

    hqtung New Member

    Tham gia ngày:
    19/3/10
    Bài viết:
    21
    Đã được cảm ơn:
    2
    Điểm thành tích:
    3
    Tiền:
    29 CR
    Phim này có cảnh cái giường tròn thích thế không biết :D
     
    #4 +1 CR
  5. adm820

    adm820 Uploader

    Tham gia ngày:
    1/12/10
    Bài viết:
    5,416
    Đã được cảm ơn:
    120,221
    Điểm thành tích:
    113
    Giới tính:
    Nam
    Tiền:
    6,607 CR
    hại thận
     
    #5 +1 CR
    quangthylove cảm ơn bài này.

Chia sẻ trang này