[Other] Jonas Brothers - Cool [Master ProRes 1080p PCM]

Thảo luận trong 'US-EU' bắt đầu bởi xuanhien2018, 14/4/19.

  1. xuanhien2018

    xuanhien2018 Well-Known Member

    Tham gia ngày:
    26/3/13
    Bài viết:
    474
    Đã được cảm ơn:
    435
    [​IMG]

    Mã:
    General
    Complete name                            : C:\Users\ADMIN\Downloads\Video\Jonas_Brothers_Cool_.mov
    Format                                   : MPEG-4
    Format profile                           : QuickTime
    
    
    	

    Codec ID : qt 2005.03 (qt )

    File size : 3.71 GiB Duration : 3 min 2 s Overall bit rate mode : Variable Overall bit rate : 174 Mb/s Encoded date : UTC 2019-04-04 17:54:42 Tagged date : UTC 2019-04-04 17:54:42 Video ID : 1 Format : ProRes Format version : Version 0 Format profile : 422 HQ Codec ID : apch Duration : 3 min 2 s Bit rate mode : Variable Bit rate : 173 Mb/s Width : 1 920 pixels Height : 1 080 pixels Display aspect ratio : 16:9 Frame rate mode : Constant Frame rate : 23.976 (24000/1001) FPS Color space : YUV Chroma subsampling : 4:2:2 Scan type : Progressive Bits/(Pixel*Frame) : 3.477 Stream size : 3.68 GiB (99%) Writing library : aut0 Language : English Encoded date : UTC 2019-04-04 17:54:42 Tagged date : UTC 2019-04-04 17:54:42 Color primaries : BT.709 Transfer characteristics : BT.709 Matrix coefficients : BT.709 Audio ID : 3 Format : PCM Format settings : Little / Signed Codec ID : lpcm Duration : 3 min 2 s Bit rate mode : Constant Bit rate : 1 536 kb/s Channel(s) : 2 channels Channel layout : L R Sampling rate : 48.0 kHz Bit depth : 16 bits Stream size : 33.5 MiB (1%) Language : English Encoded date : UTC 2019-04-04 17:54:42 Tagged date : UTC 2019-04-04 17:54:42 Other ID : 2 Type : Time code Format : QuickTime TC Duration : 3 min 2 s Time code of first frame : 01:00:00:00 Time code, striped : Yes Title : untitled Language : English Encoded date : UTC 2019-04-04 17:54:42 Tagged date : UTC 2019-04-04 17:54:42
    DOWNLOAD

    https://bit.ly/2KwDvmO
     
  2. Tranngochiep1234

    Tranngochiep1234 Well-Known Member

    Tham gia ngày:
    1/6/17
    Bài viết:
    373
    Đã được cảm ơn:
    425
    Giới tính:
    Nam
    tải không được bác ơi
     
  3. Tranngochiep1234

    Tranngochiep1234 Well-Known Member

    Tham gia ngày:
    1/6/17
    Bài viết:
    373
    Đã được cảm ơn:
    425
    Giới tính:
    Nam
    tải không được bác ơi
     

Chia sẻ trang này