Journey to the West 1986 Complete WEB-DL 4K H265 AAC-CHDWEB ~ Tây Du Ký

Thảo luận trong 'WEB-DL, HDTV' bắt đầu bởi GNAD96213, 14/6/20.

  1. GNAD96213

    GNAD96213 Well-Known Member

    Tham gia ngày:
    28/9/11
    Bài viết:
    1,148
    Đã được cảm ơn:
    7,433
    Giới tính:
    Nam
    Nơi ở:
    Hà Nội
    ***Journey to the West 1986 Complete WEB-DL 4K H265 AAC-CHDWEB***

    [​IMG]


    Media Info
    Mã:
    Format                         : MPEG-4
    
    
    	

    Format profile : Base Media

    Codec ID : isom (isom/iso2/mp41) File size : 1.46 GiB Duration : 41 min 49 s Overall bit rate mode : Variable Overall bit rate : 5 009 kb/s Writing application : Lavf57.83.100 Video ID : 1 Format : HEVC Format/Info : High Efficiency Video Coding Format profile : Main@L5@Main Codec ID : hev1 Codec ID/Info : High Efficiency Video Coding Duration : 41 min 49 s Bit rate : 4 874 kb/s Width : 3 840 pixels Height : 2 048 pixels Display aspect ratio : 1.85:1 Frame rate mode : Constant Frame rate : 25.000 FPS Color space : YUV Chroma subsampling : 4:2:0 Bit depth : 8 bits Bits/(Pixel*Frame) : 0.025 Stream size : 1.42 GiB (97%) Audio ID : 2 Format : AAC Format/Info : Advanced Audio Codec Format profile : LC Codec ID : 40 Duration : 41 min 49 s Bit rate mode : Variable Bit rate : 129 kb/s Maximum bit rate : 131 kb/s Channel(s) : 2 channels Channel positions : Front: L R Sampling rate : 44.1 kHz Frame rate : 43.066 FPS (1024 SPF) Compression mode : Lossy Stream size : 38.5 MiB (3%) Default : Yes Alternate group : 1

    Screenshot
    [​IMG]
    [​IMG]
    [​IMG]
    [​IMG]


    Download
    Nhấn nút Cảm ơn (dưới chân bài) để thấy link!
     
  2. hetvieclam

    hetvieclam Member

    Tham gia ngày:
    28/7/18
    Bài viết:
    35
    Đã được cảm ơn:
    17
    bản đẹp như này ... bác nào có lòng remux audio thuyết minh Kim Tiến cho thế hệ trẻ thơ ....
     
  3. meorom

    meorom Member

    Tham gia ngày:
    17/1/14
    Bài viết:
    58
    Đã được cảm ơn:
    17
    link die hết rồi, có bác nào tải rồi up lên fshare với ạ
     
  4. ngvutam

    ngvutam Well-Known Member

    Tham gia ngày:
    7/3/10
    Bài viết:
    327
    Đã được cảm ơn:
    490
    Giới tính:
    Nam
    Bản này mà đẹp gì bác?
     
    hetvieclam cảm ơn bài này.
  5. lostoneakai

    lostoneakai Member

    Tham gia ngày:
    28/2/20
    Bài viết:
    92
    Đã được cảm ơn:
    28
    Giới tính:
    Nam
    chất lượng DVD mà nói 4K
     
  6. meorom

    meorom Member

    Tham gia ngày:
    17/1/14
    Bài viết:
    58
    Đã được cảm ơn:
    17
    bro còn giữ ko, up lên fshare với
     
  7. cuong123

    cuong123 Well-Known Member

    Tham gia ngày:
    13/9/09
    Bài viết:
    478
    Đã được cảm ơn:
    874
    Scale từ SD lên 4K à, nhìn screenshot là biết rõ

     
  8. xukaka

    xukaka Member

    Tham gia ngày:
    7/11/18
    Bài viết:
    103
    Đã được cảm ơn:
    18
    Giới tính:
    Nam
    Cho hỏi thuyết minh Vietnam hay china ạ
     
  9. Nguyễn Quảng Duy Long

    Nguyễn Quảng Duy Long Member

    Tham gia ngày:
    25/11/20
    Bài viết:
    94
    Đã được cảm ơn:
    57
    Giới tính:
    Nam
    die rồi
     
    mingjun1977 cảm ơn bài này.

Chia sẻ trang này