[Fshare] [Karaoke] Đàm Vĩnh Hưng - Đợi Em Trong Mơ (1080p ??? AC3 x264)

Thảo luận trong 'Việt Nam' bắt đầu bởi tinhcongtu, 12/4/13.

  1. tinhcongtu

    tinhcongtu New Member

    Tham gia ngày:
    12/8/10
    Bài viết:
    217
    Đã được thích:
    0
    Điểm thành tích:
    0
    Nơi ở:
    Việt Nam
    [​IMG]
    Mã:
    Unique ID                                : 174649090529730848706803935364301184726 (0x836430FA6BC3F2B58B2E8AE66953DED6)
    Complete name                            : E:\Doi Em Trong Mo - Dam Vinh Hung KARAOKE.mkv
    Format                                   : Matroska
    Format version                           : Version 1
    File size                                : 212 MiB
    Duration                                 : 3mn 42s
    Overall bit rate                         : 7 987 Kbps
    Encoded date                             : UTC 2013-04-11 03:00:12
    Writing application                      : mkvmerge v2.4.0 ('Fumbling Towards Ecstasy') built on Oct 11 2008 20:13:15
    Writing library                          : libebml v0.7.7 + libmatroska v0.8.1
    
    Video
    ID                                       : 1
    Format                                   : AVC
    Format/Info                              : Advanced Video Codec
    Format profile                           : High@L4.0
    Format settings, CABAC                   : No
    Format settings, ReFrames                : 1 frame
    Codec ID                                 : V_MPEG4/ISO/AVC
    Duration                                 : 3mn 42s
    Bit rate                                 : 7 776 Kbps
    Width                                    : 1 920 pixels
    Height                                   : 1 080 pixels
    Display aspect ratio                     : 16:9
    Original display aspect ratio            : 16:9
    Frame rate mode                          : Constant
    Frame rate                               : 30.000 fps
    Color space                              : YUV
    Chroma subsampling                       : 4:2:0
    Bit depth                                : 8 bits
    Scan type                                : Progressive
    Bits/(Pixel*Frame)                       : 0.125
    Stream size                              : 199 MiB (94%)
    Writing library                          : x264 core 116 r2019 9cc407d
    Encoding settings                        : cabac=0 / ref=1 / deblock=1:0:0 / analyse=0x3:0x113 / me=hex / subme=7 / psy=1 / psy_rd=1.00:0.00 / mixed_ref=0 / me_range=16 / chroma_me=1 / trellis=1 / 8x8dct=1 / cqm=0 / deadzone=21,11 / fast_pskip=1 / chroma_qp_offset=-2 / threads=3 / sliced_threads=0 / nr=0 / decimate=1 / interlaced=0 / bluray_compat=0 / constrained_intra=0 / bframes=0 / weightp=2 / keyint=250 / keyint_min=25 / scenecut=40 / intra_refresh=0 / rc_lookahead=40 / rc=abr / mbtree=1 / bitrate=7776 / ratetol=1.0 / qcomp=0.60 / qpmin=0 / qpmax=69 / qpstep=4 / ip_ratio=1.40 / aq=1:1.00
    Default                                  : Yes
    Forced                                   : No
    
    Audio
    ID                                       : 2
    Format                                   : AC-3
    Format/Info                              : Audio Coding 3
    Mode extension                           : CM (complete main)
    Format settings, Endianness              : Big
    Codec ID                                 : A_AC3
    Duration                                 : 3mn 42s
    Bit rate mode                            : Constant
    Bit rate                                 : 320 Kbps
    Channel(s)                               : 4 channels
    Channel positions                        : Front: L R,   Side: L R
    Sampling rate                            : 48.0 KHz
    Bit depth                                : 16 bits
    Compression mode                         : Lossy
    Stream size                              : 8.50 MiB (4%)
    Default                                  : Yes
    Forced                                   : No
    
    
    [DOWNBOX][Hide]http://www.fshare.vn/file/TFPF4BXRAT/
    [/Hide][/DOWNBOX]
     
    Chỉnh sửa cuối: 12/4/13
  2. 1camgiacngotngao

    1camgiacngotngao Member

    Tham gia ngày:
    17/3/13
    Bài viết:
    520
    Đã được thích:
    1
    Điểm thành tích:
    18
    Re: Doi Em Trong Mo - Dam Vinh Hung- karaoke.mkv HD1920x1080p

    Thanksssssssssss.
     
  3. lequynhan

    lequynhan Well-Known Member

    Tham gia ngày:
    25/2/12
    Bài viết:
    7,142
    Đã được thích:
    202
    Điểm thành tích:
    63
    Giới tính:
    Nam
    Nghề nghiệp:
    IT
    Nơi ở:
    Hưng Yên
    Ðề: Doi Em Trong Mo - Dam Vinh Hung- karaoke.mkv[HD Upscale 1920x1080]

    Cảm ơn bác tinhcongtu đã chia sẻ. Bác cho em hỏi chút là em dùng WalaokeProViet3.5.09 và hộ trợ code bởi K-Lite Codec Pack 9.9 nhưng không tách lời được. (Các bài khác cùng định dạng mkv của em vẫn ngon). Mong bác giúp đỡ em với!
     
  4. tinhcongtu

    tinhcongtu New Member

    Tham gia ngày:
    12/8/10
    Bài viết:
    217
    Đã được thích:
    0
    Điểm thành tích:
    0
    Nơi ở:
    Việt Nam
    Ðề: Doi Em Trong Mo - Dam Vinh Hung- karaoke.mkv[HD Upscale 1920x1080]

    chắc bản đấy bị lỗi bạn thử vào box Mỗi Ngày 1 bài Karaoke!!!! tải bản khác xem saohttp://www.hdvietnam.com/diendan/192-karaoke-thiet-bi-phong-thu/427998-moi-ngay-1-bai-karaoke-258.html
     
    Chỉnh sửa cuối: 5/6/13
  5. tj3nk3pr0

    tj3nk3pr0 New Member

    Tham gia ngày:
    5/4/11
    Bài viết:
    11
    Đã được thích:
    0
    Điểm thành tích:
    0
    Ðề: Doi Em Trong Mo - Dam Vinh Hung- karaoke.mkv HD1920x1080p

    thanks 4 share
     
  6. kanjizu

    kanjizu New Member

    Tham gia ngày:
    27/12/10
    Bài viết:
    2
    Đã được thích:
    0
    Điểm thành tích:
    0
    Ðề: Doi Em Trong Mo - Dam Vinh Hung- karaoke.mkv HD1920x1080p

    thanks for share
     
  7. NQKhanh1991

    NQKhanh1991 New Member

    Tham gia ngày:
    29/6/12
    Bài viết:
    151
    Đã được thích:
    0
    Điểm thành tích:
    0
    Re: Doi Em Trong Mo - Dam Vinh Hung- karaoke.mkv HD1920x1080p

    Thank you very much!...:D
     
  8. nhannguyen176

    nhannguyen176 Active Member

    Tham gia ngày:
    23/10/13
    Bài viết:
    1,021
    Đã được thích:
    8
    Điểm thành tích:
    38
    Ðề: Doi Em Trong Mo - Dam Vinh Hung- karaoke.mkv HD1920x1080p

    thanks for share
     

Chia sẻ trang này