[Kiếm hiệp - Kinh điển] Long Môn khách sạn - Dragon Inn 1967 1080p BluRay DD5.1 x264-FAPCAVE

Thảo luận trong 'Fshare.vn' bắt đầu bởi thainhi_vn, 20/8/16.

  1. thainhi_vn

    thainhi_vn Well-Known Member

    Tham gia ngày:
    10/2/12
    Bài viết:
    586
    Đã được cảm ơn:
    720
    Nơi ở:
    Vietnam
    Long Môn khách sạn
    (Dragon Inn) 1967


    [​IMG]
    Sản xuất: Trương Đào Nhiên
    Kịch bản: Hồ Kim Thuyên
    Đạo diễn: Hồ Kim Thuyên
    Chỉ đạo võ thuật: Hàn Anh Kiệt



    Các diễn viên chính:
    - Thạch Tuyền ...... Tiêu Thiếu Tư
    - Thượng Quan Linh Phụng ...... Chu Huy
    - Bạch Ưng ...... Tào Thiếu Khâm



    Trung thần Vu Khiêm bị các thái giám hãm hại phải chịu án tử, các con bị lưu đày. Tuy nhiên, chúng vẫn cho tay chân truy sát các con ông để diệt trừ hậu hoạn. May mắn thay một nhóm các nghĩa sĩ, trong đó có Tiêu Thiếu Tư, đã hết lòng bảo vệ. Cuộc chạm trán diễn ra tại Long Môn khách sạn hẻo lánh giữa Chính - Tà với biết bao khốc liệt, liệu hậu duệ của trung thần có thoát khỏi đại kiếp này không?

    Sau khi Hồ Kim Thuyên rời bỏ SB bởi những bất hòa không thể dàn xếp sau Đại túy hiệp (Come Drink With Me), ông đã sang Đài Loan và đại diễn Long Môn khách sạn. Phim được xếp vào hàng phim kinh điển của dòng điện ảnh Hoa ngữ và được bình chọn xếp thứ 7 trong 100 phim Hoa ngữ hay nhất mọi thời đại.
    Phụ đề do bạn nhungong dịch rất chuẩn. Tôi chỉ syn. time cho phù hợp với bản phim.

    [​IMG]

    Tenlua 1080p
    Fshare 720p

    Mã:
    General
    Format  : Matroska
    File size  : 7.65 GiB
    Duration  : 1 h 51 min
    Overall bit rate  : 9 834 kb/s
    Video
    ID  : 2
    Format  : AVC
    Format/Info  : Advanced Video Codec
    Format profile  : High@L4.1
    Format settings, CABAC  : Yes
    Format settings, ReFrames  : 5 frames
    Codec ID  : V_MPEG4/ISO/AVC
    Duration  : 1 h 51 min
    Bit rate  : 9 192 kb/s
    Width  : 1 920 pixels
    Height  : 816 pixels
    Display aspect ratio  : 2.35:1
    Frame rate mode  : Constant
    Frame rate  : 23.976 (24000/1001) FPS
    Original frame rate  : 23.976 (23976/1000) FPS
    Color space  : YUV
    Chroma subsampling  : 4:2:0
    Bit depth  : 8 bits
    Scan type  : Progressive
    Bits/(Pixel*Frame)  : 0.245
    Stream size  : 7.15 GiB (93%)
    Title  : Taiwan
    Language  : Chinese
    Default  : Yes
    Forced  : No
    Audio
    ID  : 3
    Format  : AC-3
    Format/Info  : Audio Coding 3
    Mode extension  : CM (complete main)
    Format settings, Endianness  : Big
    Codec ID  : A_AC3
    Duration  : 1 h 51 min
    Bit rate mode  : Constant
    Bit rate  : 640 kb/s
    Channel(s)  : 1 channel
    Channel positions  : Front: C
    Sampling rate  : 48.0 kHz
    Frame rate  : 31.250 FPS (1536 spf)
    Compression mode  : Lossy
    Stream size  : 510 MiB (7%)
    Title  : Mandarin
    Language  : Chinese
    Default  : Yes
    Forced  : No
    Text
    ID  : 1
    Format  : UTF-8
    Codec ID  : S_TEXT/UTF8
    Codec ID/Info  : UTF-8 Plain Text
    Duration  : 1 h 45 min
    Bit rate  : 41 b/s
    Count of elements  : 863
    Stream size  : 32.3 KiB (0%)
    Title  : Tiếng Việt
    Language  : Vietnamese
    Default  : Yes
    Forced  : No
    
     
    Chỉnh sửa cuối: 22/8/16

Chia sẻ trang này