[Kinh Dị] The Babysitter 2017 1080p WEBRip x264-STRiFE ~ Cô giữ trẻ xinh đẹp

Thảo luận trong 'mHD, SD' bắt đầu bởi thien my, 17/10/17.

  1. thien my

    thien my Well-Known Member

    Tham gia ngày:
    7/12/09
    Bài viết:
    7,689
    Đã được cảm ơn:
    22,961
    Giới tính:
    Nam
    Nghề nghiệp:
    Ăn Không Ngồi rồi
    Nơi ở:
    Hàng xẻng
    The Babysitter 2017 1080p WEBRip x264-STRiFE
    Cô giữ trẻ xinh đẹp

    [​IMG]




    Mã:
    Video
    ID                                       : 1
    Format                                   : AVC
    Format/Info                              : Advanced Video Codec
    Format profile                           : High@L4.1
    Format settings, CABAC                   : Yes
    Format settings, ReFrames                : 5 frames
    Codec ID                                 : V_MPEG4/ISO/AVC
    Duration                                 : 1h 25mn
    Bit rate                                 : 3 626 Kbps
    
    
    Width                                    : 1 920 pixels
    Height                                   : 802 pixels
    Display aspect ratio                     : 2.40:1
    Frame rate mode                          : Constant
    Frame rate                               : 23.976 (24000/1001) fps
    Color space                              : YUV
    Chroma subsampling                       : 4:2:0
    Bit depth                                : 8 bits
    Scan type                                : Progressive
    Bits/(Pixel*Frame)                       : 0.098
    Stream size                              : 2.16 GiB (90%)
    Writing library                          : x264 core 152 r2851 ba24899
    Encoding settings                        : cabac=1 / ref=5 / deblock=1:-3:-3 / analyse=0x3:0x113 / me=hex / subme=8 / psy=1 / psy_rd=1.00:0.15 / mixed_ref=1 / me_range=16 / chroma_me=1 / trellis=2 / 8x8dct=1 / cqm=0 / deadzone=21,11 / fast_pskip=0 / chroma_qp_offset=-2 / threads=128 / lookahead_threads=6 / sliced_threads=0 / nr=0 / decimate=1 / interlaced=0 / bluray_compat=0 / constrained_intra=0 / bframes=3 / b_pyramid=2 / b_adapt=1 / b_bias=0 / direct=3 / weightb=1 / open_gop=0 / weightp=2 / keyint=240 / keyint_min=23 / scenecut=40 / intra_refresh=0 / rc_lookahead=50 / rc=crf / mbtree=1 / crf=20.0 / qcomp=0.60 / qpmin=0 / qpmax=69 / qpstep=4 / ip_ratio=1.40 / aq=3:0.80
    Language                                 : English
    Default                                  : Yes
    Forced                                   : No
    Audio
    ID                                       : 2
    Format                                   : AC-3
    Format/Info                              : Audio Coding 3
    Mode extension                           : CM (complete main)
    Format settings, Endianness              : Big
    Codec ID                                 : A_AC3
    Duration                                 : 1h 25mn
    Bit rate mode                            : Constant
    Bit rate                                 : 384 Kbps
    Channel(s)                               : 6 channels
    Channel positions                        : Front: L C R, Side: L R, LFE
    Sampling rate                            : 48.0 KHz
    Frame rate                               : 31.250 fps (1536 spf)
    Compression mode                         : Lossy
    Stream size                              : 234 MiB (10%)
    Language                                 : English
    Default                                  : Yes
    Forced                                   : No
    Text #1
    ID                                       : 3
    Format                                   : UTF-8
    Codec ID                                 : S_TEXT/UTF8
    Codec ID/Info                            : UTF-8 Plain Text
    Duration                                 : 1s 919ms
    Bit rate                                 : 87 bps
    Count of elements                        : 1
    Stream size                              : 21.0 Bytes (0%)
    Title                                    : Forced
    Language                                 : English
    Default                                  : No
    Forced                                   : Yes
    Text #2
    ID                                       : 4
    Format                                   : UTF-8
    Codec ID                                 : S_TEXT/UTF8
    Codec ID/Info                            : UTF-8 Plain Text
    Duration                                 : 1h 21mn
    Bit rate                                 : 69 bps
    Count of elements                        : 1304
    Stream size                              : 41.0 KiB (0%)
    Language                                 : English
    Default                                  : No
    Forced                                   : No
    Text #3
    ID                                       : 5
    Format                                   : UTF-8
    Codec ID                                 : S_TEXT/UTF8
    Codec ID/Info                            : UTF-8 Plain Text
    Duration                                 : 1h 24mn
    Bit rate                                 : 51 bps
    Count of elements                        : 1069
    Stream size                              : 32.0 KiB (0%)
    Language                                 : French
    Default                                  : No
    Forced                                   : No
    Text #4
    ID                                       : 6
    Format                                   : UTF-8
    Codec ID                                 : S_TEXT/UTF8
    Codec ID/Info                            : UTF-8 Plain Text
    Duration                                 : 1h 24mn
    Bit rate                                 : 46 bps
    Count of elements                        : 1099
    Stream size                              : 28.7 KiB (0%)
    Language                                 : Polish
    Default                                  : No
    Forced                                   : No
    Text #5
    ID                                       : 7
    Format                                   : UTF-8
    Codec ID                                 : S_TEXT/UTF8
    Codec ID/Info                            : UTF-8 Plain Text
    Duration                                 : 1h 24mn
    Bit rate                                 : 54 bps
    Count of elements                        : 1100
    Stream size                              : 34.0 KiB (0%)
    Language                                 : Portuguese
    Default                                  : No
    Forced                                   : No
    Text #6
    ID                                       : 8
    Format                                   : UTF-8
    Codec ID                                 : S_TEXT/UTF8
    Codec ID/Info                            : UTF-8 Plain Text
    Duration                                 : 1h 24mn
    Bit rate                                 : 51 bps
    Count of elements                        : 1085
    Stream size                              : 31.6 KiB (0%)
    Language                                 : Spanish
    Default                                  : No
    Forced                                   : No
    










    [​IMG]











     
  2. notalone

    notalone New Member

    Tham gia ngày:
    19/4/11
    Bài viết:
    8
    Đã được cảm ơn:
    8
    thanks
     

Chia sẻ trang này