[Other] Korn videography

Thảo luận trong 'mHD, SD Video Clips' bắt đầu bởi Lucaciu, 13/4/12.

  1. Lucaciu

    Lucaciu New Member

    Tham gia ngày:
    23/12/11
    Bài viết:
    46
    Đã được cảm ơn:
    8
    Điểm thành tích:
    0
    Tiền:
    0 CR
    [​IMG]

    Korn videography
    Genre ;Rock
    Format ; .mpg
    Size : 1.01 GB


    Video

    ID : 224 (0xE0)
    Format : MPEG Video
    Format version : Version 1
    Format settings, BVOP : Yes
    Format settings, Matrix : Custom
    Duration : 4mn 9s
    Bit rate : 1 150 Kbps
    Width : 352 pixels
    Height : 240 pixels
    Display aspect ratio : 4:3
    Frame rate : 29.970 fps
    Standard : NTSC
    Color space : YUV
    Bit depth : 8 bits
    Scan type : Progressive
    Compression mode : Lossy
    Bits/(Pixel*Frame) : 0.454
    Stream size : 34.0 MiB (82%)

    Audio
    ID : 192 (0xC0)
    Format : MPEG Audio
    Format version : Version 1
    Format profile : Layer 2
    Duration : 4mn 9s
    Bit rate mode : Constant
    Bit rate : 224 Kbps
    Channel(s) : 2 channels
    Sampling rate : 44.1 KHz
    Compression mode : Lossy
    Stream size : 6.66 MiB (16%)

    Content :

    Ice Cube Feat. KoRn - Fuck Dying.mpg 41 MB
    KoRn - Did My Time.mpg 40 MB
    KoRn- Twisted Transistor.mpg 72 MB
    Korn - Adidas.mpg 26 MB
    Korn - Alone I Break.mpeg 44 MB
    Korn - Another Brick In The Wall (Video) (Pink Floyd Cover).mpg 73 MB
    Korn - Clown.mpeg 49 MB
    Korn - Dead Bodies Everywhere - Faces of Death (Uncut Version.mpg 65 MB
    Korn - Faget.mpg 54 MB
    Korn - Falling Away From Me.mpeg 52 MB
    Korn - Freak on a Leash - music video.mpg 47 MB
    Korn - Got The Life.mpg 41 MB
    Korn - Here To Stay [Full Uncut Version].mpg 48 MB
    Korn - Make Me Bad.mpg 44 MB
    Korn - One (live Metallica MTV Icon 05-06-03).mpg 41 MB
    Korn - Right Now.mpg 32 MB
    Korn - Shoots and Ladders.mpeg 36 MB
    Korn - Somebody Someone.mpg 39 MB
    Korn - Y'All Want A Single.mpg 34 MB
    Korn- Blind.mpg 56 MB
    Korn-Thoughtless.mpeg 46 MB
    Torrent downloaded from Demonoid.com.txt 0 MB
    korn - word up.mpeg 28 MB
    korn-coming undone.mpg 34 MB

    [​IMG]

    Important:
    Buy premium account for high speed and parallel downloads!
    Check my account for new interesthing things !
    Please say Thank You if you liked my post !


    [​IMG]

    Mã:
    http://extabit.com/file/28xivl9cywfnt/
     
    kingcap cảm ơn bài này.
  2. kingcap

    kingcap Member

    Tham gia ngày:
    29/1/19
    Bài viết:
    41
    Đã được cảm ơn:
    17
    Điểm thành tích:
    8
    Giới tính:
    Nam
    Tiền:
    41 CR
    thank you
     
    #2 +1 CR

Chia sẻ trang này