[Lãng mạn] Dust In The Wind 1986 1080p BluRay x264 - LCHD

Thảo luận trong 'Fshare.vn' bắt đầu bởi huyxnguyen, 5/12/18.

  1. huyxnguyen

    huyxnguyen Well-Known Member

    Tham gia ngày:
    26/1/11
    Bài viết:
    2,987
    Đã được cảm ơn:
    1,234
    DUST IN THE WIND - 1986
    (Liàn liàn fengchén - Gió Bụi)
    IMDb rating: 7.8

    [​IMG]

    Là một phim Đài Loan của đạo diễn nổi tiếng Hầu Hiếu Hiền sản xuất năm 1986.

    Bộ phim tuy không thành công về mặt thương mại nhưng được đánh giá rất cao ở phương diện nghệ thuật và đoạt được nhiều giải thưởng. Trang IMDb chấm bộ phim đạt 7.8 điểm (tính đến 5/12/2018).


    Bộ phim như một bài tình ca buồn, nhẹ nhàng nhưng thật sâu lắng. Có lẽ tất cả những ai thuộc thế hệ 6x - 7x đều có thể bắt gặp đâu đó trong từng góc máy những kỷ niệm xưa cũ, những ký ức tưởng đã nhạt nhòa dần theo thời gian với cuộc sống xô bồ, tấp nập của thế giới hiện đại nay bỗng trở về, bồi hồi sâu lắng.

    Chuyện phim đơn giản, nhịp phim bình lặng, không có cao trào nhưng sao nó làm cho người xem không thể bỏ qua từng khung hình, phải chăng vì nó qua đỗi chân thật, thân quen, gần gũi, cứ như là một đoạn đời của chúng ta nay được chiếu lại vậy. Bộ phim kết thúc để lại trong lòng người xem lảng bảng chút bùi ngùi, suy ngẫm.

    Một chuyện tình buồn, nhưng trong veo, chẳng hề có một lời trách móc, chẳng hề có bi lụy, hận hờn. Và dù như thế nào, cuộc sống vẫn cứ tiếp diễn dù đường đời còn nhiều gió bụi...

    Bộ phim là câu chuyện kể về một chàng trai và cô gái cạnh nhà, từ tỉnh lẻ lên Đài Bắc để kiếm sống và giúp đỡ gia đình. Vật lộn, bươn chải nơi đô hội quả là một thách thức không nhỏ cho họ. Và rồi chàng trai nhập ngũ, họ vẫn liên hệ với nhau thường xuyên qua những cánh thư xanh. Nhưng mọi chuyện đâu phải lúc nào cũng suôn sẻ...

    Thông tin file:
    Mã:
    Complete name                  : Dust.In.The.Wind.1986.1080p.BluRay.x264-LCHD.mkv
    Format                         : Matroska
    Format version                 : Version 2
    File size                      : 7.94 GiB
    
    
    Duration                       : 1 h 50 min
    Overall bit rate               : 10.3 Mb/s
    Encoded date                   : UTC 2010-08-20 23:55:08
    Writing application            : mkvmerge v3.1.0 ('Happy up here') built on Jan 19 2010 12:09:24
    Writing library                : libebml v0.7.9 + libmatroska v0.8.1
    Video
    ID                             : 1
    Format                         : AVC
    Format/Info                    : Advanced Video Codec
    Format profile                 : High@L4.1
    Format settings                : CABAC / 4 Ref Frames
    Format settings, CABAC         : Yes
    Format settings, ReFrames      : 4 frames
    Codec ID                       : V_MPEG4/ISO/AVC
    Duration                       : 1 h 50 min
    Bit rate                       : 9 697 kb/s
    Width                          : 1 920 pixels
    Height                         : 1 080 pixels
    Display aspect ratio           : 16:9
    Frame rate mode                : Constant
    Frame rate                     : 23.976 (24000/1001) FPS
    Color space                    : YUV
    Chroma subsampling             : 4:2:0
    Bit depth                      : 8 bits
    Scan type                      : Progressive
    Bits/(Pixel*Frame)             : 0.195
    Stream size                    : 7.29 GiB (92%)
    Writing library                : x264 core 104 r1680 1a6fd47
    Language                       : Chinese
    Default                        : Yes
    Forced                         : Yes
    Audio
    ID                             : 2
    Format                         : AC-3
    Format/Info                    : Audio Coding 3
    Commercial name                : Dolby Digital
    Codec ID                       : A_AC3
    Duration                       : 1 h 50 min
    Bit rate mode                  : Constant
    Bit rate                       : 640 kb/s
    Channel(s)                     : 2 channels
    Channel layout                 : L R
    Sampling rate                  : 48.0 kHz
    Frame rate                     : 31.250 FPS (1536 SPF)
    Bit depth                      : 16 bits
    Compression mode               : Lossy
    Stream size                    : 504 MiB (6%)
    Language                       : Chinese
    Service kind                   : Complete Main
    Default                        : Yes
    Forced                         : Yes
    Text
    ID                             : 3
    Format                         : UTF-8
    Codec ID                       : S_TEXT/UTF8
    Codec ID/Info                  : UTF-8 Plain Text
    Language                       : English
    Default                        : Yes
    Forced                         : No
    Thông tin phim:
    Mã:
    https://www.imdb.com/title/tt0091406/
    Link tải:
    Mã:
    Phim: https://www.fshare.vn/file/HUKZYLU62H1D
    Sub V: https://www.fshare.vn/file/N8UD1O32RGMK
     
    KHOINGA, nummap, Hayabusa and 28 others like this.
  2. trilnh

    trilnh Huyền Thoại

    Tham gia ngày:
    25/1/09
    Bài viết:
    9,581
    Đã được cảm ơn:
    335,285
    Nghề nghiệp:
    Giáo Viên Nghệ Thuật
    Nơi ở:
    Hà Nội
    Một bộ phim rất đáng xem. Và xem xong một nỗi buồn nghèn nghẹn nơi tâm khảm, chung quy cũng bởi tại một chữ "nghèo"! Cám ơn Huy đã dịch và giới thiệu phim cho mọi người!
     
    ductdcargo and Kai LE like this.
  3. apolo4002

    apolo4002 Well-Known Member

    Tham gia ngày:
    14/1/18
    Bài viết:
    190
    Đã được cảm ơn:
    563
    Giới tính:
    Nữ
    link die rồi .
     
  4. apolo4002

    apolo4002 Well-Known Member

    Tham gia ngày:
    14/1/18
    Bài viết:
    190
    Đã được cảm ơn:
    563
    Giới tính:
    Nữ
    Mới xem xong bộ A Summer At Grandpas 1984 liền tim ngay bộ này và The Time to Live and the Time to Die 1985 để tải về xem, ai dè ko còn link nào sống =.=
    Bộ Dust In The Wind 1986 đang tải bằng torrent lne6 dc 85% giờ cũng đứng luôn , nản =.=
     
    Kai LE cảm ơn bài này.
  5. Kai LE

    Kai LE Active Member

    Tham gia ngày:
    2/4/16
    Bài viết:
    97
    Đã được cảm ơn:
    77
    Mình cũng tìm 2 phim này hoài. Mấy ngày nay ko thấy .
    Bác reup lại giúp với.
    Bạn apolo4002 có link kéo torrent ko ạ?
     
  6. Kai LE

    Kai LE Active Member

    Tham gia ngày:
    2/4/16
    Bài viết:
    97
    Đã được cảm ơn:
    77
  7. Kai LE

    Kai LE Active Member

    Tham gia ngày:
    2/4/16
    Bài viết:
    97
    Đã được cảm ơn:
    77
    Chỉnh sửa cuối: 23/2/20
  8. Kai LE

    Kai LE Active Member

    Tham gia ngày:
    2/4/16
    Bài viết:
    97
    Đã được cảm ơn:
    77
  9. apolo4002

    apolo4002 Well-Known Member

    Tham gia ngày:
    14/1/18
    Bài viết:
    190
    Đã được cảm ơn:
    563
    Giới tính:
    Nữ
    Kai LE cảm ơn bài này.
  10. vuakeosua

    vuakeosua Member

    Tham gia ngày:
    17/2/09
    Bài viết:
    134
    Đã được cảm ơn:
    8
  11. Kai LE

    Kai LE Active Member

    Tham gia ngày:
    2/4/16
    Bài viết:
    97
    Đã được cảm ơn:
    77
    Mình còn 2,3 phim nữa của cụ ấy. Mình sẽ up lên , gửi bạn link !
     
    Chỉnh sửa cuối: 22/4/20
  12. Kai LE

    Kai LE Active Member

    Tham gia ngày:
    2/4/16
    Bài viết:
    97
    Đã được cảm ơn:
    77
    vuakeosua cảm ơn bài này.
  13. Kai LE

    Kai LE Active Member

    Tham gia ngày:
    2/4/16
    Bài viết:
    97
    Đã được cảm ơn:
    77
    vuakeosua cảm ơn bài này.
  14. Kai LE

    Kai LE Active Member

    Tham gia ngày:
    2/4/16
    Bài viết:
    97
    Đã được cảm ơn:
    77
    vuakeosua cảm ơn bài này.
  15. vuakeosua

    vuakeosua Member

    Tham gia ngày:
    17/2/09
    Bài viết:
    134
    Đã được cảm ơn:
    8
  16. vuakeosua

    vuakeosua Member

    Tham gia ngày:
    17/2/09
    Bài viết:
    134
    Đã được cảm ơn:
    8
  17. Kai LE

    Kai LE Active Member

    Tham gia ngày:
    2/4/16
    Bài viết:
    97
    Đã được cảm ơn:
    77
    Mình ko có sub .
     
  18. Lamphoiman

    Lamphoiman New Member

    Tham gia ngày:
    25/1/20
    Bài viết:
    6
    Đã được cảm ơn:
    0
    Giới tính:
    Nữ
    Bác có Millennium Mambo 2001 cho mình xin với, raw cũng được ạ. Kiếm mãi mà không có bản nào luôn :"(
     

Chia sẻ trang này