Loài Voi Lùn Ở Borneo HDTV 1080p50 x264 AAC 2.0-Wanara [Thuyết Minh]

Thảo luận trong 'Phim Tài Liệu - Thuyết Minh' bắt đầu bởi wanara, 16/2/20.

  1. wanara

    wanara Well-Known Member

    Tham gia ngày:
    2/9/10
    Bài viết:
    1,089
    Đã được cảm ơn:
    22,729
    Giới tính:
    Nam
    Nơi ở:
    Việt Nam
    Web:
    Loài Voi Lùn Ở Borneo HDTV 1080p50 x264 AAC 2.0-Wanara [Thuyết Minh]

    [​IMG] [​IMG] [​IMG] [​IMG] [​IMG] [​IMG] [​IMG] [​IMG] [​IMG] [​IMG] [​IMG] [​IMG] [​IMG] [​IMG]

    Mã:
    
    
    	

    Format : MPEG-4

    Format profile : Base Media Codec ID : isom (isom/iso2/avc1/mp41) File size : 3.02 GiB Duration : 52 min 48 s Overall bit rate mode : Constant Overall bit rate : 8 198 kb/s Encoded date : UTC 2020-01-11 14:41:38 Tagged date : UTC 2020-01-11 14:41:38 Writing application : Lavf58.30.100 Video ID : 1 Format : AVC Format/Info : Advanced Video Codec Format profile : High@L4.2 Format settings : CABAC / 4 Ref Frames Format settings, CABAC : Yes Format settings, Reference : 4 frames Codec ID : avc1 Codec ID/Info : Advanced Video Coding Duration : 52 min 48 s Bit rate mode : Constant Bit rate : 8 000 kb/s Width : 1 920 pixels Height : 1 080 pixels Display aspect ratio : 16:9 Frame rate mode : Constant Frame rate : 25.000 FPS Color space : YUV Chroma subsampling : 4:2:0 Bit depth : 8 bits Scan type : Progressive Bits/(Pixel*Frame) : 0.154 Stream size : 2.95 GiB (98%) Encoded date : UTC 2020-01-11 14:41:38 Tagged date : UTC 2020-01-11 14:41:38 Color range : Limited Color primaries : BT.601 PAL Transfer characteristics : BT.470 System B/G Matrix coefficients : BT.470 System B/G Codec configuration box : avcC Audio ID : 2 Format : AAC LC Format/Info : Advanced Audio Codec Low Complexity Codec ID : mp4a-40-2 Duration : 52 min 47 s Duration_LastFrame : -16 ms Bit rate mode : Constant Bit rate : 192 kb/s Channel(s) : 2 channels Channel layout : L R Sampling rate : 48.0 kHz Frame rate : 46.875 FPS (1024 SPF) Compression mode : Lossy Stream size : 72.8 MiB (2%) Default : Yes Alternate group : 1 Encoded date : UTC 2020-01-11 14:41:38 Tagged date : UTC 2020-01-11 14:41:38[/SIZE]
    [​IMG]
    Xem thêm:
     
    kphong07, hp_hdvn, banvatoi and 7 others like this.
  2. tlamhp

    tlamhp Well-Known Member

    Tham gia ngày:
    23/7/12
    Bài viết:
    801
    Đã được cảm ơn:
    510
    Giới tính:
    Nam
    Nghề nghiệp:
    Housekeeper
    Nơi ở:
    Oakland CA USA
    Thêm một bộ phim hay mà còn thấy ở phần cuối bài viết nhiều link hấp dẫn khác nữa. Phải down cho hết mới được.
     
    hp_hdvn cảm ơn bài này.

Chia sẻ trang này