(m2ts)Hocus Pocus 1984 Blu-ray 1080p AVC DD 2 0-CHDBits.subviet

Thảo luận trong 'Bluray Remux' bắt đầu bởi nicolasphuong, 6/3/20.

  1. nicolasphuong

    nicolasphuong Well-Known Member

    Tham gia ngày:
    14/7/10
    Bài viết:
    465
    Đã được cảm ơn:
    528
    Hocus Pocus 1984 Blu-ray 1080p AVC DD 2 0-CHDBits ~ Ma Lang Thang
    (nguồn của bạn adm820)
    [​IMG]
    General
    ID : 1 (0x1)
    Complete name : G:\Phim HD 4K\Hocus Pocus (1984)\BDMV\STREAM\00003.m2ts

    Format : BDAV

    Format/Info : Blu-ray Video
    File size : 21.4 GiB
    Duration : 1h 33mn
    Overall bit rate mode : Variable
    Overall bit rate : 32.6 Mbps
    Maximum Overall bit rate : 35.5 Mbps
    Video
    ID : 4113 (0x1011)
    Menu ID : 1 (0x1)
    Format : AVC
    Format/Info : Advanced Video Codec
    Format profile : High@L4.1
    Format settings, CABAC : Yes
    Format settings, ReFrames : 4 frames
    Codec ID : 27
    Duration : 1h 33mn
    Bit rate mode : Constant
    Bit rate : 30.5 Mbps
    Width : 1 920 pixels
    Height : 1 080 pixels
    Display aspect ratio : 16:9
    Frame rate : 24.000 fps
    Standard : NTSC
    Color space : YUV
    Chroma subsampling : 4:2:0
    Bit depth : 8 bits
    Scan type : Progressive
    Bits/(Pixel*Frame) : 0.613
    Stream size : 20.0 GiB (94%)
    Color primaries : BT.709
    Transfer characteristics : BT.709
    Matrix coefficients : BT.709
    Audio #1
    ID : 4352 (0x1100)
    Menu ID : 1 (0x1)
    Format : AC-3
    Format/Info : Audio Coding 3
    Mode extension : CM (complete main)
    Format settings, Endianness : Big
    Codec ID : 129
    Duration : 1h 33mn
    Bit rate mode : Constant
    Bit rate : 384 Kbps
    Channel(s) : 2 channels
    Channel positions : Front: L R
    Sampling rate : 48.0 KHz
    Bit depth : 16 bits
    Compression mode : Lossy
    Stream size : 258 MiB (1%)
    Language : Chinese
    Audio #2
    ID : 4353 (0x1101)
    Menu ID : 1 (0x1)
    Format : AC-3
    Format/Info : Audio Coding 3
    Mode extension : CM (complete main)
    Format settings, Endianness : Big
    Codec ID : 129
    Duration : 1h 33mn
    Bit rate mode : Constant
    Bit rate : 384 Kbps
    Channel(s) : 2 channels
    Channel positions : Front: L R
    Sampling rate : 48.0 KHz
    Bit depth : 16 bits
    Compression mode : Lossy
    Stream size : 258 MiB (1%)
    Language : Chinese
    Text #1
    ID : 4608 (0x1200)
    Menu ID : 1 (0x1)
    Format : PGS
    Codec ID : 144
    Language : Vietnamese
    Text #2
    ID : 4609 (0x1201)
    Menu ID : 1 (0x1)
    Format : PGS
    Codec ID : 144
    Language : Chinese
    Text #3
    ID : 4610 (0x1202)
    Menu ID : 1 (0x1)
    Format : PGS
    Codec ID : 144
    Language : English
    [​IMG]
    Link tải
    https://www.fshare.vn/file/VQTK7YXKRUME
     
    Chỉnh sửa cuối: 8/3/20
  2. nhocxitrum

    nhocxitrum Active Member

    Tham gia ngày:
    20/6/09
    Bài viết:
    164
    Đã được cảm ơn:
    174
    Giới tính:
    Nam
    bạn có link sub riêng ko, link này cũng die rồi
     
  3. hoangtuans

    hoangtuans Active Member

    Tham gia ngày:
    11/1/09
    Bài viết:
    149
    Đã được cảm ơn:
    35
    em cũng cần ạ. Bác có up lại or up sub viet cho em xin. thanks
     
  4. hoangtuans

    hoangtuans Active Member

    Tham gia ngày:
    11/1/09
    Bài viết:
    149
    Đã được cảm ơn:
    35
    Em cũng cần subviet or film ạ bác reup nhé. thanks
     
  5. nicolasphuong

    nicolasphuong Well-Known Member

    Tham gia ngày:
    14/7/10
    Bài viết:
    465
    Đã được cảm ơn:
    528
    Đã sửa lại link.. link vẫn sống,chắc tại đó mình chèn code..sry cả nhà nhé
     

Chia sẻ trang này