[M2TS] Paris by Night 129: TRIỀU ĐẠI 2019 1080i Blu-ray AVC DD 2.0

Thảo luận trong 'Bluray Remux' bắt đầu bởi Anh YAM, 10/11/19.

  1. Anh YAM

    Anh YAM Uploader

    Tham gia ngày:
    5/1/19
    Bài viết:
    614
    Đã được cảm ơn:
    19,156
    Giới tính:
    Nam
    Web:
    [M2TS]
    Paris by Night 129: TRIỀU ĐẠI 2019 1080i Blu-ray AVC DD 2.0

    [​IMG]

    [​IMG]




    Media Info [​IMG]

    General
    Format : BDAV
    Format/Info : Blu-ray Video
    File size : 36.7 GiB
    Duration : 6 h 5 min
    Overall bit rate mode : Variable
    Overall bit rate : 14.4 Mb/s
    Maximum Overall bit rate : 48.0 Mb/s

    Video
    ID : 4113 (0x1011)
    Menu ID : 1 (0x1)
    Format : AVC
    Format/Info : Advanced Video Codec
    Format profile : High@L4.1
    Format settings : CABAC / 3 Ref Frames
    Format settings, CABAC : Yes
    Format settings, Reference frames : 3 frames
    Format settings, GOP : M=3, N=15
    Codec ID : 27
    Duration : 6 h 5 min
    Bit rate mode : Variable
    Bit rate : 13.3 Mb/s
    Maximum bit rate : 31.0 Mb/s
    Width : 1 920 pixels
    Height : 1 080 pixels
    Display aspect ratio : 16:9
    Frame rate : 29.970 (30000/1001) FPS
    Standard : NTSC
    Color space : YUV
    Chroma subsampling : 4:2:0
    Bit depth : 8 bits
    Scan type : Interlaced
    Scan type, store method : Separated fields
    Scan order : Top Field First
    Bits/(Pixel*Frame) : 0.214
    Stream size : 34.1 GiB (93%)
    Color range : Limited
    Color primaries : BT.709
    Transfer characteristics : BT.709
    Matrix coefficients : BT.709

    Audio
    ID : 4352 (0x1100)
    Menu ID : 1 (0x1)
    Format : AC-3
    Format/Info : Audio Coding 3
    Commercial name : Dolby Digital
    Codec ID : 129
    Duration : 6 h 5 min
    Bit rate mode : Constant
    Bit rate : 448 kb/s
    Channel(s) : 2 channels
    Channel layout : L R
    Sampling rate : 48.0 kHz
    Frame rate : 31.250 FPS (1536 SPF)
    Compression mode : Lossy
    Stream size : 1.15 GiB (3%)
    Service kind : Complete Main


    -------------------------------------------
    Screenshot
    [​IMG] [​IMG] [​IMG] [​IMG] [​IMG] [​IMG] [​IMG] [​IMG] [​IMG] [​IMG] [​IMG]
    [​IMG]
    Nhấn nút Cảm ơn (dưới chân bài) để thấy link!
     
  2. lamtan

    lamtan Active Member

    Tham gia ngày:
    22/3/10
    Bài viết:
    251
    Đã được cảm ơn:
    127
    Cho mình hỏi bản remux này có chapter không bạn?
     
    Anh YAM cảm ơn bài này.
  3. Anh YAM

    Anh YAM Uploader

    Tham gia ngày:
    5/1/19
    Bài viết:
    614
    Đã được cảm ơn:
    19,156
    Giới tính:
    Nam
    Web:
    không bác ạ
     
  4. hoaitrung

    hoaitrung Moderator Thành viên BQT

    Tham gia ngày:
    13/12/09
    Bài viết:
    2,901
    Đã được cảm ơn:
    88,118
    Giới tính:
    Nam
    Nghề nghiệp:
    HD Documentaries
    Nơi ở:
    Việt Nam
    Chương trình ca nhạc mà REMUX không chapter thì không ngon rồi, vì người xem không tua bài được.
     
    lamtan cảm ơn bài này.
  5. audionguyen

    audionguyen Member

    Tham gia ngày:
    6/12/17
    Bài viết:
    93
    Đã được cảm ơn:
    80
    Giới tính:
    Nam
    xin lổi bạn mình mất tài khoảng nên chưa tải được cảm ơn bạn nhiều .
     

Chia sẻ trang này