[Mega.1280] Các Files Audio Thuyết Minh Tiếng Việt Cho Phim HD

Thảo luận trong 'Phim có audio Việt' bắt đầu bởi Quỹ Răng Hô, 8/1/11.

  1. Quỹ Răng Hô

    Quỹ Răng Hô New Member

    Tham gia ngày:
    8/1/11
    Bài viết:
    56
    Đã được cảm ơn:
    16
    Nơi ở:
    Sài Gòn mộng mơ
    Các files Audio thuyết minh tiếng Việt cho phim HD[​IMG][​IMG][​IMG][​IMG][​IMG]


    Avatar (2009)

    [​IMG]

    IMDB RATING:[​IMG]8.4 (222,908 Votes)

    Đạo diễn: James Cameron
    Diễn viên: Zoe Saldana, Sam Worthington, Sigourney Weaver, Michelle Rodriguez

    Nhà sản xuất: Twentieth Century Fox Film Corporation

    Thể loại: Hành động, Phiêu lưu, Viễn tưởng
    Độ dài: 166 phút
    Quốc gia: Mỹ
    Năm sản xuất: 2009

    [​IMG]
    Mã:
    General
    Complete name                    : D:\Audio\Avatar.2009.1080p.BluRay.DTS.x264-EbP.ac3
    Format                           : AC-3
    Format/Info                      : Audio Coding 3
    
    
    File size                        : 518 MiB
    Duration                         : 2h 41mn
    Overall bit rate                 : 448 Kbps
    Audio
    Format                           : AC-3
    Format/Info                      : Audio Coding 3
    Mode extension                   : CM (complete main)
    Duration                         : 2h 41mn
    Bit rate mode                    : Constant
    Bit rate                         : 448 Kbps
    Channel(s)                       : 6 channels
    Channel positions                : Front: L C R, Side: L R, LFE
    Sampling rate                    : 48.0 KHz
    Bit depth                        : 16 bits
    Compression mode                 : Lossy
    Stream size                      : 518 MiB (100%)
    [​IMG]
    10% recovery record
    Mã:
    [HIDE]http://mega.1280.com/folder/T2CDZQXQDT/[/HIDE]

    Khớp với mọi bản 720p và 1080p time flim là 2h 41'.
    Có thể download bản Avatar 2009 1080p BluRay DTS x264-ESiR tại:http://www.hdvietnam.com/diendan/showthread.php?t=59466

    From Paris with Love (2010)

    [​IMG]

    IMDB RATING:[​IMG] 6.4/10 12,577 votes »

    [​IMG]
    Mã:
    General
    Complete name                    : D:\Audio\From Paris with Love (2010).1080p.aac
    Format                           : ADTS
    Format/Info                      : Audio Data Transport Stream
    File size                        : 50.6 MiB
    Audio
    Format                           : AAC
    Format/Info                      : Advanced Audio Codec
    Format version                   : Version 4
    Format profile                   : HE-AAC / LC
    Bit rate mode                    : Variable
    Channel(s)                       : 2 channels
    Sampling rate                    : 44.1 KHz / 22.05 KHz
    Compression mode                 : Lossy
    Stream size                      : 50.6 MiB (100%)
    
    [​IMG]
    10% recovery record
    Mã:
    [HIDE]http://mega.1280.com/file/T4QT24WF8T/[/HIDE]
    Khớp với mọi bản 720p và 1080p trên diễn đàn.
    Có thể download bản From Paris with Love (2010) 1080p.Blu-ray.DTS.x264-ViSTA™ tại:http://www.hdvietnam.com/diendan/showthread.php?t=65693

    G.I.Joe The Rise of Cobra (2009)

    Mã:
    Format                           : Matroska
    File size                        : 56.1 MiB
    Duration                         : 1h 49mn
    Overall bit rate                 : 71.8 Kbps
    Track name                       : Predators (2010) 1080p.Blu-ray.DTS.x264-ViSTA™
    Encoded date                     : UTC 2011-01-08 07:09:24
    Writing application              : mkvmerge v4.3.0 ('Escape from the Island') built on Sep  5 2010 10:30:51
    Writing library                  : libebml v1.0.0 + libmatroska v1.0.0
    Audio
    ID                               : 1
    Format                           : AAC
    Format/Info                      : Advanced Audio Codec
    Format profile                   : HE-AAC / LC
    Codec ID                         : A_AAC
    Duration                         : 1h 49mn
    Channel(s)                       : 2 channels
    Channel positions                : Front: L R
    Sampling rate                    : 44.1 KHz / 22.05 KHz
    Compression mode                 : Lossy
    Language                         : Vietnamese
    
    [​IMG]
    10% recovery record
    Mã:
    [HIDE]http://mega.1280.com/file/THSGAK4BDT/[/HIDE]
    Piranha (2010)

    [​IMG]

    [​IMG]
    Mã:
    General
    Complete name                    : D:\Audio\Piranha.2010.Bluray.1080p.DTS.x264-METiS.mp3
    Format                           : MPEG Audio
    File size                        : 202 MiB
    Duration                         : 1h 28mn
    Overall bit rate                 : 320 Kbps
    Genre                            : Blues
    Audio
    Format                           : MPEG Audio
    Format version                   : Version 1
    Format profile                   : Layer 3
    Duration                         : 1h 28mn
    Bit rate mode                    : Constant
    Bit rate                         : 320 Kbps
    Channel(s)                       : 2 channels
    Sampling rate                    : 48.0 KHz
    Compression mode                 : Lossy
    Stream size                      : 202 MiB (100%)
    [​IMG]
    10% recovery record
    Mã:
    [HIDE]http://mega.1280.com/file/T5ZZRKCD9T/
    http://mega.1280.com/file/TG8RBBFMHT/
    http://mega.1280.com/file/TCFKVWVBMT/[/HIDE]

    Repo Men (2010)

    [​IMG]
    IMDB RATING:http://www.imdb.com/title/tt1053424/

    [​IMG]
    Mã:
    General
    Complete name                    : D:\Audio\Repo.Men.2010.UNRATED.720p.BluRay.DTS.x264.mp3
    Format                           : MPEG Audio
    File size                        : 104 MiB
    Duration                         : 1h 53mn
    Overall bit rate                 : 128 Kbps
    Writing library                  : LAME3.98
    Audio
    Format                           : MPEG Audio
    Format version                   : Version 1
    Format profile                   : Layer 3
    Duration                         : 1h 53mn
    Bit rate mode                    : Constant
    Bit rate                         : 128 Kbps
    Channel(s)                       : 2 channels
    Sampling rate                    : 48.0 KHz
    Compression mode                 : Lossy
    Stream size                      : 104 MiB (100%)
    Writing library                  : LAME3.98
    
    [​IMG]
    10% recovery record
    Khớp với mọi bản 720p và 1080p trên diễn đàn.
    Có thể download bản Repo Men (2010) Unrated.1080p.Blu-ray.DTS.x264-ViSTA™ tại:http://www.hdvietnam.com/diendan/showthread.php?t=81812

    Dùng chương trình MEDIA PLAYER CLASSIC 6.07 để xem audio rời khỏi thông qua MKVGUI.
    Download MEDIA PLAYER CLASSIC 6.07 tại:http://www.mediafire.com/?goy3heom237ik12

    Part 2 :D

    How to Train Your Dragon (2010)

    [​IMG]
    IMDB RATING:[​IMG]8.2/10 (33,548 votes)

    [​IMG]
    Mã:
    General
    Complete name                    : D:\Audio\How.To.Train.Your.Dragon.2010.720p.BluRay.x264-EbP (Thuyet minh - HDVNBITS).ac3
    Format                           : AC-3
    Format/Info                      : Audio Coding 3
    File size                        : 295 MiB
    Duration                         : 1h 32mn
    Overall bit rate                 : 448 Kbps
    Audio
    Format                           : AC-3
    Format/Info                      : Audio Coding 3
    Mode extension                   : CM (complete main)
    Duration                         : 1h 32mn
    Bit rate mode                    : Constant
    Bit rate                         : 448 Kbps
    Channel(s)                       : 6 channels
    Channel positions                : Front: L C R, Side: L R, LFE
    Sampling rate                    : 48.0 KHz
    Bit depth                        : 16 bits
    Compression mode                 : Lossy
    Stream size                      : 295 MiB (100%)
    [​IMG]
    10% recovery record
    Mã:
    [HIDE]http://mega.1280.com/file/TWMWZ36ZCT/
    http://mega.1280.com/file/T0043QCR9T/
    http://mega.1280.com/file/T1DRC97B4T/[/HIDE]

    Khớp với mọi bản 720p và 1080p trên diễn đàn.
    Có thể download bản How to Train Your Dragon (2010) 1080p.Blu-ray.x264-ViSTA™ tại:http://www.hdvietnam.com/diendan/showthread.php?t=101146

    Ice Age: Dawn of the Dinosaurs (2009)

    [​IMG]
    IMDB RATING: 7.2/10 19,821 votes (10/3/2009)

    [​IMG]
    Mã:
    General
    Complete name                    : D:\Audio\Ice.Age.Dawn.of.the.Dinosaurs.2009.720p.BluRay.DTS.x264-EPiK_track2.mp2
    Format                           : MPEG Audio
    File size                        : 129 MiB
    Duration                         : 1h 34mn
    Overall bit rate                 : 192 Kbps
    Audio
    Format                           : MPEG Audio
    Format version                   : Version 1
    Format profile                   : Layer 2
    Duration                         : 1h 34mn
    Bit rate mode                    : Constant
    Bit rate                         : 192 Kbps
    Channel(s)                       : 2 channels
    Sampling rate                    : 48.0 KHz
    Compression mode                 : Lossy
    Stream size                      : 129 MiB (100%)
    
    [​IMG]
    10% recovery record
    Mã:
    [HIDE][URL="http://mega.1280.com/file/TP5N2WPV0T/"]http://mega.1280.com/file/TP5N2WPV0T/[/URL][/HIDE]
    Khớp với mọi bản 720p và 1080p trên diễn đàn.
    Có thể download bản Ice Age: Dawn of the Dinosaurs 2009 1080p.BluRay.DTS.x264-EPiK tại:http://www.hdvietnam.com/diendan/showthread.php?t=24313

    Predators (2010)

    [​IMG]
    IMDB RATING:[​IMG]6.7/10 (32,911 votes)

    [​IMG]
    Mã:
    General
    Complete name                    : D:\Predators.2010.720p.BluRay.DTS.x264-5.1.dts
    Format                           : DTS
    Format/Info                      : Digital Theater Systems
    File size                        : 1.13 GiB
    Duration                         : 1h 46mn
    Overall bit rate                 : 1 510 Kbps
    Audio
    Format                           : DTS
    Format/Info                      : Digital Theater Systems
    Duration                         : 1h 46mn
    Bit rate mode                    : Constant
    Bit rate                         : 1 510 Kbps
    Channel(s)                       : 6 channels
    Channel positions                : Front: L C R, Side: L R, LFE
    Sampling rate                    : 48.0 KHz
    Bit depth                        : 24 bits
    Compression mode                 : Lossy
    Stream size                      : 1.13 GiB (100%)
    [​IMG]
    10% recovery record
    Mã:
    [HIDE][URL="http://share.megaplus.vn/dl.php/2500830"]http://share.megaplus.vn/dl.php/2500830[/URL][/HIDE]

    Khớp với mọi bản 720p và 1080p trên diễn đàn.
    Có thể download bản Predators (2010) 1080p.Blu-ray.DTS.x264-ViSTA™ tại:http://www.hdvietnam.com/diendan/showthread.php?t=102130


    God of Gamblers III The Early Stage (1996)

    [​IMG]
    [​IMG]
    Mã:
    General
    Complete name                    : D:\Audio\God.of.Gamblers.III.Back.to.Shanghai.1991.720p.HDTV.x264-NGB.mp3
    Format                           : MPEG Audio
    File size                        : 128 MiB
    Duration                         : 1h 51mn
    Overall bit rate                 : 160 Kbps
    Track name                       : thanh bai 3
    Genre                            : Other
    Audio
    Format                           : MPEG Audio
    Format version                   : Version 1
    Format profile                   : Layer 3
    Duration                         : 1h 52mn
    Bit rate mode                    : Constant
    Bit rate                         : 160 Kbps
    Channel(s)                       : 2 channels
    Sampling rate                    : 44.1 KHz
    Compression mode                 : Lossy
    Stream size                      : 128 MiB (100%)
    
    [​IMG]
    10% recovery record
    Mã:
    [HIDE]http://mega.1280.com/file/TNGYN3A41T/[/HIDE]

    Khớp với bản 720p God of Gamblers III The Early Stage (1996) Repack 720p HDTV x264 - NGB
    Có thể download bản God of Gamblers III The Early Stage (1996) Repack 720p HDTV x264 - NGB tại:http://www.hdvietnam.com/diendan/showthread.php?t=127669

    The Child's Eye (2010)

    [​IMG]
    IMDB RATING:http://www.imdb.com/title/tt1314170/

    [​IMG]
    Mã:
    General
    Complete name                    : D:\The Childs Eye 3D Half-SBS.mp3
    Format                           : MPEG Audio
    File size                        : 222 MiB
    Duration                         : 1h 37mn
    Overall bit rate                 : 320 Kbps
    Track name                       : The Childs Eye 3D Half-SBS.mp3
    Genre                            : Other
    Audio
    Format                           : MPEG Audio
    Format version                   : Version 1
    Format profile                   : Layer 3
    Duration                         : 1h 37mn
    Bit rate mode                    : Constant
    Bit rate                         : 320 Kbps
    Channel(s)                       : 2 channels
    Sampling rate                    : 48.0 KHz
    Compression mode                 : Lossy
    Stream size                      : 222 MiB (100%)
    [​IMG]
    10% recovery record
    Mã:
    [HIDE][URL="http://mega.1280.com/folder/TR1ZRX76ST/"]http://mega.1280.com/folder/TR1ZRX76ST/[/URL][/HIDE]

    Khớp với mọi bản 720p và 1080p và 3D trên diễn đàn.
    Có thể download bản The Child's Eye 2010 BluRay 1080p DTS 2Audio x264-CHD tại:http://www.hdvietnam.com/diendan/showthread.php?t=116621


    Sixty Million Dollar Man (1995)

    [​IMG]
    IMDB RATING: 6.0/10 (658 votes)

    [​IMG]
    Mã:
    General
    Complete name                    : D:\Audio\Sixty.Million.Dollar.Man.1995.BluRay.720p.DTS.2Audio.x264-CHD.ac3
    Format                           : AC-3
    Format/Info                      : Audio Coding 3
    File size                        : 414 MiB
    Duration                         : 1h 30mn
    Overall bit rate                 : 640 Kbps
    Audio
    Format                           : AC-3
    Format/Info                      : Audio Coding 3
    Mode extension                   : CM (complete main)
    Duration                         : 1h 30mn
    Bit rate mode                    : Constant
    Bit rate                         : 640 Kbps
    Channel(s)                       : 6 channels
    Channel positions                : Front: L C R, Side: L R, LFE
    Sampling rate                    : 48.0 KHz
    Bit depth                        : 16 bits
    Compression mode                 : Lossy
    Stream size                      : 414 MiB (100%)
    [​IMG]
    10% recovery record
    Mã:
    [HIDE][URL="http://mega.1280.com/folder/TP4KN7TFHT/"]http://mega.1280.com/folder/TP4KN7TFHT/[/URL][/HIDE]

    Khớp với mọi bản 720p và 1080p trên diễn đàn.
    Có thể download bản Sixty Million Dollar Man 1995 BluRay 1080p AC3 2Audio x264-CHD tại:http://www.hdvietnam.com/diendan/showthread.php?t=107250


    Cloudy With A Chance Of Meatballs (2009)

    [​IMG]
    IMDB RATING: 7.4/10 (5,715 votes)

    [​IMG]
    Mã:
    General
    Complete name                    : D:\Cloudy with a Chance of Meatballs 1080p DD 5.1.mp3
    Format                           : MPEG Audio
    File size                        : 205 MiB
    Duration                         : 1h 29mn
    Overall bit rate                 : 320 Kbps
    Genre                            : Blues
    Audio
    Format                           : MPEG Audio
    Format version                   : Version 1
    Format profile                   : Layer 3
    Duration                         : 1h 29mn
    Bit rate mode                    : Constant
    Bit rate                         : 320 Kbps
    Channel(s)                       : 2 channels
    Sampling rate                    : 48.0 KHz
    Compression mode                 : Lossy
    Stream size                      : 205 MiB (100%)
    [​IMG]
    10% recovery record
    Mã:
    [HIDE][URL="http://mega.1280.com/folder/T04G1SN44T/"]http://mega.1280.com/folder/T04G1SN44T/[/URL][/HIDE]

    Khớp với mọi bản 720p và 1080p trên diễn đàn.
    Có thể download bản Cloudy with a Chance of Meatballs (2009) 720p.BluRay.x264.DTS-WiKi tại:http://www.hdvietnam.com/diendan/showthread.php?t=36860

    The Legend (1993) - Phương Thế Ngọc

    [​IMG]

    [​IMG]

    Mã:
    General
    Complete name                    : D:\The_Legend_1993_Bluray_720p_AC3_2Audio_x264-CHD[USLT].mp3
    Format                           : MPEG Audio
    File size                        : 87.5 MiB
    Duration                         : 1h 35mn
    Overall bit rate                 : 128 Kbps
    Track name                       : phuongthengoc
    Genre                            : Other
    Audio
    Format                           : MPEG Audio
    Format version                   : Version 1
    Format profile                   : Layer 3
    Duration                         : 1h 35mn
    Bit rate mode                    : Constant
    Bit rate                         : 128 Kbps
    Channel(s)                       : 2 channels
    Sampling rate                    : 44.1 KHz
    Compression mode                 : Lossy
    Stream size                      : 87.5 MiB (100%)
    
    [​IMG]
    Mã:
    [HIDE][URL="http://mega.1280.com/file/TKTP0M65VT/"]http://mega.1280.com/file/TKTP0M65VT/[/URL][/HIDE]

    Khớp với bản The Legend 1993 Bluray 720p AC3 2Audio x264-CHD
    Có thể down bản The Legend 1993 Bluray 720p AC3 2Audio x264-CHD tại:http://forum.hdmovie.vn/showthread.php/6519-MULTI-The-Legend-1993-Bluray-720p-AC3-2Audio-x264-CHD-Ph%C6%B0%C6%A1ng-Th%E1%BA%BF-Ng%E1%BB%8Dc-L%C3%BD-Li%C3%AAn-Ki%E1%BB%87t

    Chúc Các Bạn Xem Phim Vui Vẻ ;))

    Part 3 bên dưới.
     
    Chỉnh sửa cuối: 12/1/11
    hdfsvn, fsvnhd, vu41313 and 1 other person like this.
  2. htinfo

    htinfo New Member

    Tham gia ngày:
    20/3/10
    Bài viết:
    3,827
    Đã được cảm ơn:
    60
    Nghề nghiệp:
    Sinh viên
    Nơi ở:
    The Faculty of Ice Tea, HCMC US
    Thank bạn đã sưu tầm,mình vẫn thích Audio gốc hơn, DTS nghe thích hơn :mad:)
     
  3. Quỹ Răng Hô

    Quỹ Răng Hô New Member

    Tham gia ngày:
    8/1/11
    Bài viết:
    56
    Đã được cảm ơn:
    16
    Nơi ở:
    Sài Gòn mộng mơ
    Despicable Me (2010)

    [​IMG]

    IMDB RATING:[​IMG] 7.6/10 (22,315 votes)

    [​IMG]
    Mã:
    General
    Complete name                    : D:\Despicable.Me.2010.720p.BluRay.x264-EbP_track2.ac3
    Format                           : AC-3
    Format/Info                      : Audio Coding 3
    File size                        : 125 MiB
    Duration                         : 1h 30mn
    Overall bit rate                 : 192 Kbps
    
    Audio
    Format                           : AC-3
    Format/Info                      : Audio Coding 3
    Mode extension                   : CM (complete main)
    Duration                         : 1h 30mn
    Bit rate mode                    : Constant
    Bit rate                         : 192 Kbps
    Channel(s)                       : 2 channels
    Channel positions                : Front: L R
    Sampling rate                    : 48.0 KHz
    Bit depth                        : 16 bits
    Compression mode                 : Lossy
    Stream size                      : 125 MiB (100%)
    [​IMG]
    10% recovery record
    Mã:
    [HIDE][URL="http://mega.1280.com/file/TT9K1GCRMT/"]http://mega.1280.com/file/TT9K1GCRMT/[/URL][/HIDE]

    Khớp với mọi bản 720p và 1080p trên diễn đàn.
    Có thể download bản Despicable Me 2010 1080p Blu-ray DTS x264-ViSTA™ tại:http://www.hdvietnam.com/diendan/showthread.php?t=117196

    A Christmas Carol (2009)

    [​IMG]
    IMDB RATING: 7.0/10 (15,864 votes)
    [​IMG]
    Mã:
    General
    Complete name                    : D:\A Christmas Carol 3D Half-SBS-HDmovie.vn.mp3
    Format                           : MPEG Audio
    File size                        : 219 MiB
    Duration                         : 1h 35mn
    Overall bit rate                 : 320 Kbps
    Genre                            : Blues
    
    Audio
    Format                           : MPEG Audio
    Format version                   : Version 1
    Format profile                   : Layer 3
    Duration                         : 1h 35mn
    Bit rate mode                    : Constant
    Bit rate                         : 320 Kbps
    Channel(s)                       : 2 channels
    Sampling rate                    : 48.0 KHz
    Compression mode                 : Lossy
    Stream size                      : 219 MiB (100%)
    
    [​IMG]
    10% recovery record
    Mã:
    [HIDE]http://mega.1280.com/file/THDJAAD4KT/[/HIDE]
    Khớp với mọi bản 720p và 1080p trên diễn đàn.
    Có thể download bản A Christmas Carol 2009 1080p Bluray X264-DIMENSION tại:http://www.hdvietnam.com/diendan/showthread.php?t=79938

    9 (2009)

    [​IMG]
    IMDB RATING: 7.0/10 (31,342 votes)
    [​IMG]
    Mã:
    General
    Complete name                    : D:\9.2009.Repack.720p.BluRay.DTS.x264-EbP_track2.ac3
    Format                           : AC-3
    Format/Info                      : Audio Coding 3
    File size                        : 254 MiB
    Duration                         : 1h 19mn
    Overall bit rate                 : 448 Kbps
    
    Audio
    Format                           : AC-3
    Format/Info                      : Audio Coding 3
    Mode extension                   : CM (complete main)
    Duration                         : 1h 19mn
    Bit rate mode                    : Constant
    Bit rate                         : 448 Kbps
    Channel(s)                       : 6 channels
    Channel positions                : Front: L C R, Side: L R, LFE
    Sampling rate                    : 48.0 KHz
    Bit depth                        : 16 bits
    Compression mode                 : Lossy
    Stream size                      : 254 MiB (100%)
    [​IMG]
    Mã:
    [HIDE]Đang up...[/HIDE]

    Khớp với mọi bản 720p và 1080p trên diễn đàn.
    Có thể download bản 9 (2009) 720p.Blu-ray.DTS.x264-HDBRiSe tại:http://www.hdvietnam.com/diendan/showthread.php?t=31399

    Phim tài liệu, khoa học thuyết minh tiếng Việt


    Bí Mật: Bên Trong Tử Cấm Thành

    [​IMG]

    [​IMG]
    Mã:
    [HIDE][URL="http://mega.1280.com/folder/T0F85S9ZYT"]http://mega.1280.com/folder/T0F85S9ZYT[/URL][/HIDE]

    Bí mật tàu Titanic

    [​IMG]

    [​IMG]
    Mã:
    [HIDE][URL="http://mega.1280.com/file/TWC4DTQWQT"]http://mega.1280.com/file/TWC4DTQWQT[/URL][/HIDE]

    Sự sụp đổ của nền văn minh Maya

    [​IMG]

    [​IMG]
    Mã:
    [HIDE][URL="http://mega.1280.com/folder/TZB56M7TFT"]http://mega.1280.com/folder/TZB56M7TFT[/URL][/HIDE]

    Bí ẩn châu Á: Viên ngọc trong rừng rậm

    [​IMG]

    [​IMG]
    Mã:
    [HIDE][URL="http://mega.1280.com/file/T9J425T4PT"]http://mega.1280.com/file/T9J425T4PT[/URL][/HIDE]

    Bí ẩn đĩa bay

    [​IMG]

    [​IMG]
    Mã:
    [HIDE][URL="http://mega.1280.com/folder/T60M8WC3BT"]http://mega.1280.com/folder/T60M8WC3BT[/URL][/HIDE]
     
    Chỉnh sửa cuối: 11/1/11
    quanvang cảm ơn bài này.
  4. Hoàng Hôn

    Hoàng Hôn Well-Known Member

    Tham gia ngày:
    13/1/10
    Bài viết:
    708
    Đã được cảm ơn:
    497
    Ðề: [Mega.1280] Các Files Audio Thuyết Minh Tiếng Việt Cho Phim HD

    Tuyệt, hy vọng bạn cập nhật nhiều phim hơn ...

    PS: Giá mà có thuyết minh của phim tài liệu, khoa học hehe,
     
  5. Quỹ Răng Hô

    Quỹ Răng Hô New Member

    Tham gia ngày:
    8/1/11
    Bài viết:
    56
    Đã được cảm ơn:
    16
    Nơi ở:
    Sài Gòn mộng mơ
    Mình đang up tiếp nà. Mình còn mấy phim lẽ nữa và 11 phim của Châu Tinh Trì ;))
     
  6. Nh0c_Qu4y

    Nh0c_Qu4y New Member

    Tham gia ngày:
    6/5/10
    Bài viết:
    10
    Đã được cảm ơn:
    1
    Ðề: [Mega.1280] Các Files Audio Thuyết Minh Tiếng Việt Cho Phim HD

    Đọc Sub quen rùi nhưng vẫn mong có thuyết minh để cho người thân cùng thưởng thức . Thanks bác nhìu
     
  7. 8334754

    8334754 New Member

    Tham gia ngày:
    27/9/10
    Bài viết:
    113
    Đã được cảm ơn:
    1
    Ðề: [Mega.1280] Các Files Audio Thuyết Minh Tiếng Việt Cho Phim HD

    UP UP UP UP UP UP UP UP UP UP
     
  8. vinhcmb

    vinhcmb Well-Known Member

    Tham gia ngày:
    3/9/10
    Bài viết:
    7,617
    Đã được cảm ơn:
    13,738
    Giới tính:
    Nam
    Nghề nghiệp:
    Cửu vạn
    Nơi ở:
    Sài Gòn
    Ðề: [Mega.1280] Các Files Audio Thuyết Minh Tiếng Việt Cho Phim HD

    Thanks bác. Hy vọng sẽ có nhiều thuyết minh hơn nữa :D
    Bác chủ có thể up thêm link của Predators (2010) sang 1280 dc ko? MS đao chậm quá
     
    Chỉnh sửa cuối: 9/1/11
  9. immort

    immort Well-Known Member

    Tham gia ngày:
    11/9/09
    Bài viết:
    580
    Đã được cảm ơn:
    336
    Nơi ở:
    Nhà xác
    các cụ ở nhà ko đọc kịp sub! có cái này đỡ thật:))
     
  10. Quỹ Răng Hô

    Quỹ Răng Hô New Member

    Tham gia ngày:
    8/1/11
    Bài viết:
    56
    Đã được cảm ơn:
    16
    Nơi ở:
    Sài Gòn mộng mơ
    Re: Ðề: [Mega.1280] Các Files Audio Thuyết Minh Tiếng Việt Cho Phim HD

    Mình sẽ up qua 1280 sớm nhất có thể :D
     
  11. FlimHDPro

    FlimHDPro New Member

    Tham gia ngày:
    9/1/11
    Bài viết:
    18
    Đã được cảm ơn:
    1
    Thanks bạn nhiều lắm. ^^!~ Đó giờ tìm audio khớp với flim HD khó ghê. Nay mới đc toại nguyện.
     
  12. noicontimmocoi

    noicontimmocoi Member

    Tham gia ngày:
    23/12/10
    Bài viết:
    48
    Đã được cảm ơn:
    7
    Ðề: [Mega.1280] Các Files Audio Thuyết Minh Tiếng Việt Cho Phim HD

    topic hay quá
    a có audio thuyet minh của film
    Transformers.2007.BluRay.1080p.x264.DTS-WiKi
    Transformers.Revenge.of.the.Fallen.2009.IMAX.Edition.720p.BluRay.DTS.x264-EPiK
    có thì up cho e với
    thank a nhìu
     
  13. Quỹ Răng Hô

    Quỹ Răng Hô New Member

    Tham gia ngày:
    8/1/11
    Bài viết:
    56
    Đã được cảm ơn:
    16
    Nơi ở:
    Sài Gòn mộng mơ
    Re: Ðề: [Mega.1280] Các Files Audio Thuyết Minh Tiếng Việt Cho Phim HD

    Audio Transformers 1-2 Thuyết minh không khớp với bản HD bạn ơi :). DVD bị cắt nhiều khúc lắm. Fix lại cũng không khớp :D
     
  14. anhchangdatinh1107

    anhchangdatinh1107 Well-Known Member

    Tham gia ngày:
    17/9/09
    Bài viết:
    1,014
    Đã được cảm ơn:
    236
    tuyệt vời cám ơn bác Tiên răng hô.bác và bác hiệp sĩ lợn con là numberone. cho em hỏi audio cá ăn thịt ấy là bản giống bác hiepsiloncon không??vì bản ấy thiếu 1 số chỏ không thuyết minh
     
  15. anhchangdatinh1107

    anhchangdatinh1107 Well-Known Member

    Tham gia ngày:
    17/9/09
    Bài viết:
    1,014
    Đã được cảm ơn:
    236
    sẳn bác báo list phim bác sẽ up audio lun đi bác.để em down về trước video.hehe thanks bác nhìu
     
  16. Quỹ Răng Hô

    Quỹ Răng Hô New Member

    Tham gia ngày:
    8/1/11
    Bài viết:
    56
    Đã được cảm ơn:
    16
    Nơi ở:
    Sài Gòn mộng mơ
    Mình không biết nữa bạn ơi. :) Mình gop góp Audio từ đó giờ từ cái web vs diễn đàn HD khác :D. Hoặc là DVDrip nữa. Bạn down về thử xem. Thân bạn! :)
     
  17. nhatrangpda

    nhatrangpda Member

    Tham gia ngày:
    7/10/08
    Bài viết:
    85
    Đã được cảm ơn:
    15
    Ðề: [Mega.1280] Các Files Audio Thuyết Minh Tiếng Việt Cho Phim HD

    Thuyết minh này sẽ rất tiện cho các cháu nhỏ nhà mình, rất thích xem phim, nhưng vẫn còn phải đánh vần từng chữ :D.
    Vấn đề là sẽ phải dùng MKVGUIDE để mix lại nữa thôi.
    Cảm ơn bạn nhiều.
     
  18. noicontimmocoi

    noicontimmocoi Member

    Tham gia ngày:
    23/12/10
    Bài viết:
    48
    Đã được cảm ơn:
    7
    Ðề: [Mega.1280] Các Files Audio Thuyết Minh Tiếng Việt Cho Phim HD

    How to Train Your Dragon (2010) part 2 bi hỏng rồi a ơi, up lai giúp e với
     
  19. Quỹ Răng Hô

    Quỹ Răng Hô New Member

    Tham gia ngày:
    8/1/11
    Bài viết:
    56
    Đã được cảm ơn:
    16
    Nơi ở:
    Sài Gòn mộng mơ
    Re: Ðề: [Mega.1280] Các Files Audio Thuyết Minh Tiếng Việt Cho Phim HD

    Mega 1280 đang bảo trì nên nó điên loạn vậy đó. Ban chờ lúc khác down lại thì sẽ không sao đâu. Thân bạn :D
     
  20. hieuvlt

    hieuvlt Member

    Tham gia ngày:
    5/5/10
    Bài viết:
    257
    Đã được cảm ơn:
    19
    Ðề: [Mega.1280] Các Files Audio Thuyết Minh Tiếng Việt Cho Phim HD

    thanks bác nhiều mong là có thêm nhiều bản dịch cho anh em HD việt cùng thưởng thức
     

Chia sẻ trang này