[MF] Michael Learn To Rock Music Video Collection (HD, DVD, DVDrip, Karaoke,...)

Thảo luận trong 'mHD, SD Video Clips' bắt đầu bởi namkent, 19/12/10.

  1. namkent

    namkent New Member

    Tham gia ngày:
    31/5/09
    Bài viết:
    1,283
    Đã được thích:
    7
    Điểm thành tích:
    0
    Nghề nghiệp:
    Sinh viên
    Ðề: Michael Learn To Rock Music Video Collection (HD, DVD, DVDrip, Karaoke,...)

    [​IMG]

    Mã:
    General
    Unique ID                        : 222740487241284795789450557654831462001 (0xA79241E64FFDCD84B4C63356CD23F671)
    
    Format                           : Matroska
    File size                        : 67.8 MiB
    Duration                         : 3mn 46s
    Overall bit rate                 : 2 515 Kbps
    Encoded date                     : UTC 2010-12-11 11:19:01
    Writing application              : mkvmerge v2.9.8 ('C'est le bon') built on Aug 13 2009 12:49:06
    Writing library                  : libebml v0.7.7 + libmatroska v0.8.1
    
    Video
    ID                               : 1
    Format                           : AVC
    Format/Info                      : Advanced Video Codec
    Format profile                   : High@L3.0
    Format settings, CABAC           : Yes
    Format settings, ReFrames        : 4 frames
    Codec ID                         : V_MPEG4/ISO/AVC
    Duration                         : 3mn 46s
    Bit rate                         : 1 999 Kbps
    Width                            : 720 pixels
    Height                           : 576 pixels
    Display aspect ratio             : 5:4
    Frame rate                       : 25.000 fps
    Standard                         : PAL
    Color space                      : YUV
    Chroma subsampling               : 4:2:0
    Bit depth                        : 8 bits
    Scan type                        : Progressive
    Bits/(Pixel*Frame)               : 0.193
    Stream size                      : 52.6 MiB (78%)
    Title                            : Namkent | Wild women - Michael Learn To Rock
    Writing library                  : x264 core 98 r1649 c54c47d
    Encoding settings                : cabac=1 / ref=3 / deblock=1:0:0 / analyse=0x3:0x113 / me=hex / subme=7 / psy=1 / psy_rd=1.00:0.00 / mixed_ref=1 / me_range=16 / chroma_me=1 / trellis=1 / 8x8dct=1 / cqm=0 / deadzone=21,11 / fast_pskip=1 / chroma_qp_offset=-2 / threads=3 / sliced_threads=0 / nr=0 / decimate=1 / interlaced=0 / constrained_intra=0 / bframes=3 / b_pyramid=2 / b_adapt=1 / b_bias=0 / direct=1 / weightb=1 / weightp=2 / keyint=250 / keyint_min=25 / scenecut=40 / intra_refresh=0 / rc_lookahead=40 / rc=2pass / mbtree=1 / bitrate=1999 / ratetol=1.0 / qcomp=0.60 / qpmin=10 / qpmax=51 / qpstep=4 / cplxblur=20.0 / qblur=0.5 / ip_ratio=1.40 / aq=1:1.00
    
    Audio #1
    ID                               : 2
    Format                           : AC-3
    Format/Info                      : Audio Coding 3
    Mode extension                   : CM (complete main)
    Codec ID                         : A_AC3
    Duration                         : 3mn 46s
    Bit rate mode                    : Constant
    Bit rate                         : 256 Kbps
    Channel(s)                       : 2 channels
    Channel positions                : Front: L R
    Sampling rate                    : 48.0 KHz
    Bit depth                        : 16 bits
    Compression mode                 : Lossy
    Stream size                      : 6.90 MiB (10%)
    Title                            : Namkent | Wild women - Michael Learn To Rock (beat)
    
    Audio #2
    ID                               : 3
    Format                           : AC-3
    Format/Info                      : Audio Coding 3
    Mode extension                   : CM (complete main)
    Codec ID                         : A_AC3
    Duration                         : 3mn 46s
    Bit rate mode                    : Constant
    Bit rate                         : 256 Kbps
    Channel(s)                       : 2 channels
    Channel positions                : Front: L R
    Sampling rate                    : 48.0 KHz
    Bit depth                        : 16 bits
    Compression mode                 : Lossy
    Stream size                      : 6.90 MiB (10%)
    Title                            : Namkent | Wild women - Michael Learn To Rock
    
    
    [hide]Michael.Learn.To.Rock.[Wild.Women].-.Karaoke._.Namkent.mkv[/hide]​
     
  2. namkent

    namkent New Member

    Tham gia ngày:
    31/5/09
    Bài viết:
    1,283
    Đã được thích:
    7
    Điểm thành tích:
    0
    Nghề nghiệp:
    Sinh viên
    Ðề: Michael Learn To Rock Music Video Collection (HD, DVD, DVDrip, Karaoke,...)

    [​IMG]

    Mã:
    General
    Unique ID                        : 236734475304434390350897101304069644764 (0xB21966C7C555A44AA22A7831411461DC)
    
    Format                           : Matroska
    File size                        : 115 MiB
    Duration                         : 4mn 2s
    Overall bit rate                 : 3 989 Kbps
    Encoded date                     : UTC 2010-12-11 08:45:18
    Writing application              : mkvmerge v2.9.8 ('C'est le bon') built on Aug 13 2009 12:49:06
    Writing library                  : libebml v0.7.7 + libmatroska v0.8.1
    
    Video
    ID                               : 1
    Format                           : AVC
    Format/Info                      : Advanced Video Codec
    Format profile                   : High@L3.0
    Format settings, CABAC           : Yes
    Format settings, ReFrames        : 4 frames
    Codec ID                         : V_MPEG4/ISO/AVC
    Duration                         : 4mn 2s
    Nominal bit rate                 : 1 999 Kbps
    Width                            : 720 pixels
    Height                           : 576 pixels
    Display aspect ratio             : 5:4
    Frame rate                       : 25.000 fps
    Standard                         : PAL
    Color space                      : YUV
    Chroma subsampling               : 4:2:0
    Bit depth                        : 8 bits
    Scan type                        : Progressive
    Bits/(Pixel*Frame)               : 0.193
    Title                            : Namkent | The actor - Michael Learn To Rock
    Writing library                  : x264 core 98 r1649 c54c47d
    Encoding settings                : cabac=1 / ref=3 / deblock=1:0:0 / analyse=0x3:0x113 / me=hex / subme=7 / psy=1 / psy_rd=1.00:0.00 / mixed_ref=1 / me_range=16 / chroma_me=1 / trellis=1 / 8x8dct=1 / cqm=0 / deadzone=21,11 / fast_pskip=1 / chroma_qp_offset=-2 / threads=3 / sliced_threads=0 / nr=0 / decimate=1 / interlaced=0 / constrained_intra=0 / bframes=3 / b_pyramid=2 / b_adapt=1 / b_bias=0 / direct=1 / weightb=1 / weightp=2 / keyint=250 / keyint_min=25 / scenecut=40 / intra_refresh=0 / rc_lookahead=40 / rc=2pass / mbtree=1 / bitrate=1999 / ratetol=1.0 / qcomp=0.60 / qpmin=10 / qpmax=51 / qpstep=4 / cplxblur=20.0 / qblur=0.5 / ip_ratio=1.40 / aq=1:1.00
    
    Audio #1
    ID                               : 2
    Format                           : PCM
    Codec ID                         : A_PCM/INT/LIT
    Duration                         : 4mn 2s
    Bit rate mode                    : Constant
    Channel(s)                       : 2 channels
    Sampling rate                    : 48.0 KHz
    Bit depth                        : 16 bits
    Title                            : Namkent | The actor - Michael Learn To Rock (LMCP)
    
    Audio #2
    ID                               : 3
    Format                           : AC-3
    Format/Info                      : Audio Coding 3
    Mode extension                   : CM (complete main)
    Codec ID                         : A_AC3
    Duration                         : 4mn 2s
    Bit rate mode                    : Constant
    Bit rate                         : 448 Kbps
    Channel(s)                       : 6 channels
    Channel positions                : Front: L C R, Side: L R, LFE
    Sampling rate                    : 48.0 KHz
    Bit depth                        : 16 bits
    Compression mode                 : Lossy
    Stream size                      : 12.9 MiB (11%)
    Title                            : Namkent | The actor - Michael Learn To Rock (AC3 5.1)
    
    
    [hide]Michael.Learn.To.Rock.[The.Actor]._.Namkent.mkv[/hide]​
     
  3. namkent

    namkent New Member

    Tham gia ngày:
    31/5/09
    Bài viết:
    1,283
    Đã được thích:
    7
    Điểm thành tích:
    0
    Nghề nghiệp:
    Sinh viên
    Ðề: Michael Learn To Rock Music Video Collection (HD, DVD, DVDrip, Karaoke,...)

    [​IMG]

    Mã:
    General
    Unique ID                        : 237869313497179037302278719830524151131 (0xB2F3F69F83D4BACEA8D14A4E6A57C55B)
    
    Format                           : Matroska
    File size                        : 74.3 MiB
    Duration                         : 4mn 7s
    Overall bit rate                 : 2 518 Kbps
    Encoded date                     : UTC 2010-12-11 11:17:33
    Writing application              : mkvmerge v2.9.8 ('C'est le bon') built on Aug 13 2009 12:49:06
    Writing library                  : libebml v0.7.7 + libmatroska v0.8.1
    
    Video
    ID                               : 1
    Format                           : AVC
    Format/Info                      : Advanced Video Codec
    Format profile                   : High@L3.0
    Format settings, CABAC           : Yes
    Format settings, ReFrames        : 4 frames
    Codec ID                         : V_MPEG4/ISO/AVC
    Duration                         : 4mn 7s
    Bit rate                         : 1 999 Kbps
    Width                            : 720 pixels
    Height                           : 576 pixels
    Display aspect ratio             : 5:4
    Frame rate                       : 25.000 fps
    Standard                         : PAL
    Color space                      : YUV
    Chroma subsampling               : 4:2:0
    Bit depth                        : 8 bits
    Scan type                        : Progressive
    Bits/(Pixel*Frame)               : 0.193
    Stream size                      : 57.8 MiB (78%)
    Title                            : Namkent | The actor - Michael Learn To Rock
    Writing library                  : x264 core 98 r1649 c54c47d
    Encoding settings                : cabac=1 / ref=3 / deblock=1:0:0 / analyse=0x3:0x113 / me=hex / subme=7 / psy=1 / psy_rd=1.00:0.00 / mixed_ref=1 / me_range=16 / chroma_me=1 / trellis=1 / 8x8dct=1 / cqm=0 / deadzone=21,11 / fast_pskip=1 / chroma_qp_offset=-2 / threads=3 / sliced_threads=0 / nr=0 / decimate=1 / interlaced=0 / constrained_intra=0 / bframes=3 / b_pyramid=2 / b_adapt=1 / b_bias=0 / direct=1 / weightb=1 / weightp=2 / keyint=250 / keyint_min=25 / scenecut=40 / intra_refresh=0 / rc_lookahead=40 / rc=2pass / mbtree=1 / bitrate=1999 / ratetol=1.0 / qcomp=0.60 / qpmin=10 / qpmax=51 / qpstep=4 / cplxblur=20.0 / qblur=0.5 / ip_ratio=1.40 / aq=1:1.00
    
    Audio #1
    ID                               : 2
    Format                           : AC-3
    Format/Info                      : Audio Coding 3
    Mode extension                   : CM (complete main)
    Codec ID                         : A_AC3
    Duration                         : 4mn 7s
    Bit rate mode                    : Constant
    Bit rate                         : 256 Kbps
    Channel(s)                       : 2 channels
    Channel positions                : Front: L R
    Sampling rate                    : 48.0 KHz
    Bit depth                        : 16 bits
    Compression mode                 : Lossy
    Stream size                      : 7.56 MiB (10%)
    Title                            : Namkent | The actor - Michael Learn To Rock (beat)
    
    Audio #2
    ID                               : 3
    Format                           : AC-3
    Format/Info                      : Audio Coding 3
    Mode extension                   : CM (complete main)
    Codec ID                         : A_AC3
    Duration                         : 4mn 7s
    Bit rate mode                    : Constant
    Bit rate                         : 256 Kbps
    Channel(s)                       : 2 channels
    Channel positions                : Front: L R
    Sampling rate                    : 48.0 KHz
    Bit depth                        : 16 bits
    Compression mode                 : Lossy
    Stream size                      : 7.56 MiB (10%)
    Title                            : Namkent | The actor - Michael Learn To Rock
    
    
    [hide]Michael.Learn.To.Rock.[The.Actor].-.Karaoke._.Namkent.mkv[/hide]​
     
  4. namkent

    namkent New Member

    Tham gia ngày:
    31/5/09
    Bài viết:
    1,283
    Đã được thích:
    7
    Điểm thành tích:
    0
    Nghề nghiệp:
    Sinh viên
    Ðề: Michael Learn To Rock Music Video Collection (HD, DVD, DVDrip, Karaoke,...)

    [​IMG]

    Mã:
    General
    Unique ID                        : 190601393831389563216962884207818115038 (0x8F647E412FFDB07A8E1DDB94B21507DE)
    
    Format                           : Matroska
    File size                        : 105 MiB
    Duration                         : 3mn 40s
    Overall bit rate                 : 3 991 Kbps
    Encoded date                     : UTC 2010-12-11 08:50:23
    Writing application              : mkvmerge v2.9.8 ('C'est le bon') built on Aug 13 2009 12:49:06
    Writing library                  : libebml v0.7.7 + libmatroska v0.8.1
    
    Video
    ID                               : 1
    Format                           : AVC
    Format/Info                      : Advanced Video Codec
    Format profile                   : High@L3.0
    Format settings, CABAC           : Yes
    Format settings, ReFrames        : 4 frames
    Codec ID                         : V_MPEG4/ISO/AVC
    Duration                         : 3mn 40s
    Nominal bit rate                 : 2 000 Kbps
    Width                            : 720 pixels
    Height                           : 576 pixels
    Display aspect ratio             : 5:4
    Frame rate                       : 25.000 fps
    Standard                         : PAL
    Color space                      : YUV
    Chroma subsampling               : 4:2:0
    Bit depth                        : 8 bits
    Scan type                        : Progressive
    Bits/(Pixel*Frame)               : 0.193
    Title                            : Namkent | Wild woman - Michael Learn To Rock
    Writing library                  : x264 core 98 r1649 c54c47d
    Encoding settings                : cabac=1 / ref=3 / deblock=1:0:0 / analyse=0x3:0x113 / me=hex / subme=7 / psy=1 / psy_rd=1.00:0.00 / mixed_ref=1 / me_range=16 / chroma_me=1 / trellis=1 / 8x8dct=1 / cqm=0 / deadzone=21,11 / fast_pskip=1 / chroma_qp_offset=-2 / threads=3 / sliced_threads=0 / nr=0 / decimate=1 / interlaced=0 / constrained_intra=0 / bframes=3 / b_pyramid=2 / b_adapt=1 / b_bias=0 / direct=1 / weightb=1 / weightp=2 / keyint=250 / keyint_min=25 / scenecut=40 / intra_refresh=0 / rc_lookahead=40 / rc=2pass / mbtree=1 / bitrate=2000 / ratetol=1.0 / qcomp=0.60 / qpmin=10 / qpmax=51 / qpstep=4 / cplxblur=20.0 / qblur=0.5 / ip_ratio=1.40 / aq=1:1.00
    
    Audio #1
    ID                               : 2
    Format                           : PCM
    Codec ID                         : A_PCM/INT/LIT
    Duration                         : 3mn 40s
    Bit rate mode                    : Constant
    Channel(s)                       : 2 channels
    Sampling rate                    : 48.0 KHz
    Bit depth                        : 16 bits
    Title                            : Namkent | Wild woman - Michael Learn To Rock (LCMP)
    
    Audio #2
    ID                               : 3
    Format                           : AC-3
    Format/Info                      : Audio Coding 3
    Mode extension                   : CM (complete main)
    Codec ID                         : A_AC3
    Duration                         : 3mn 40s
    Bit rate mode                    : Constant
    Bit rate                         : 448 Kbps
    Channel(s)                       : 6 channels
    Channel positions                : Front: L C R, Side: L R, LFE
    Sampling rate                    : 48.0 KHz
    Bit depth                        : 16 bits
    Compression mode                 : Lossy
    Stream size                      : 11.8 MiB (11%)
    Title                            : Namkent | Wild woman - Michael Learn To Rock (AC3 5.1)
    
    
    [hide]Michael.Learn.To.Rock.[Wild.Woman]._.Namkent.mkv[/hide]​
     
  5. namkent

    namkent New Member

    Tham gia ngày:
    31/5/09
    Bài viết:
    1,283
    Đã được thích:
    7
    Điểm thành tích:
    0
    Nghề nghiệp:
    Sinh viên
    Ðề: Michael Learn To Rock Music Video Collection (HD, DVD, DVDrip, Karaoke,...)

    [​IMG]

    Mã:
    General
    Unique ID                        : 173494841400757109861114656127622609182 (0x8285E41A379CA6F2AAE2EA1D98B8791E)
    
    Format                           : Matroska
    File size                        : 79.8 MiB
    Duration                         : 4mn 25s
    Overall bit rate                 : 2 518 Kbps
    Encoded date                     : UTC 2010-12-11 11:16:28
    Writing application              : mkvmerge v2.9.8 ('C'est le bon') built on Aug 13 2009 12:49:06
    Writing library                  : libebml v0.7.7 + libmatroska v0.8.1
    
    Video
    ID                               : 1
    Format                           : AVC
    Format/Info                      : Advanced Video Codec
    Format profile                   : High@L3.0
    Format settings, CABAC           : Yes
    Format settings, ReFrames        : 4 frames
    Codec ID                         : V_MPEG4/ISO/AVC
    Duration                         : 4mn 25s
    Bit rate                         : 2 000 Kbps
    Width                            : 720 pixels
    Height                           : 576 pixels
    Display aspect ratio             : 5:4
    Frame rate                       : 25.000 fps
    Standard                         : PAL
    Color space                      : YUV
    Chroma subsampling               : 4:2:0
    Bit depth                        : 8 bits
    Scan type                        : Progressive
    Bits/(Pixel*Frame)               : 0.193
    Stream size                      : 62.0 MiB (78%)
    Title                            : Namkent | That's why (You go away) - Michael Learn To Rock
    Writing library                  : x264 core 98 r1649 c54c47d
    Encoding settings                : cabac=1 / ref=3 / deblock=1:0:0 / analyse=0x3:0x113 / me=hex / subme=7 / psy=1 / psy_rd=1.00:0.00 / mixed_ref=1 / me_range=16 / chroma_me=1 / trellis=1 / 8x8dct=1 / cqm=0 / deadzone=21,11 / fast_pskip=1 / chroma_qp_offset=-2 / threads=3 / sliced_threads=0 / nr=0 / decimate=1 / interlaced=0 / constrained_intra=0 / bframes=3 / b_pyramid=2 / b_adapt=1 / b_bias=0 / direct=1 / weightb=1 / weightp=2 / keyint=250 / keyint_min=25 / scenecut=40 / intra_refresh=0 / rc_lookahead=40 / rc=2pass / mbtree=1 / bitrate=2000 / ratetol=1.0 / qcomp=0.60 / qpmin=10 / qpmax=51 / qpstep=4 / cplxblur=20.0 / qblur=0.5 / ip_ratio=1.40 / aq=1:1.00
    
    Audio #1
    ID                               : 2
    Format                           : AC-3
    Format/Info                      : Audio Coding 3
    Mode extension                   : CM (complete main)
    Codec ID                         : A_AC3
    Duration                         : 4mn 25s
    Bit rate mode                    : Constant
    Bit rate                         : 256 Kbps
    Channel(s)                       : 2 channels
    Channel positions                : Front: L R
    Sampling rate                    : 48.0 KHz
    Bit depth                        : 16 bits
    Compression mode                 : Lossy
    Stream size                      : 8.12 MiB (10%)
    Title                            : Namkent | That's why (You go away) - Michael Learn To Rock (beat)
    
    Audio #2
    ID                               : 3
    Format                           : AC-3
    Format/Info                      : Audio Coding 3
    Mode extension                   : CM (complete main)
    Codec ID                         : A_AC3
    Duration                         : 4mn 25s
    Bit rate mode                    : Constant
    Bit rate                         : 256 Kbps
    Channel(s)                       : 2 channels
    Channel positions                : Front: L R
    Sampling rate                    : 48.0 KHz
    Bit depth                        : 16 bits
    Compression mode                 : Lossy
    Stream size                      : 8.12 MiB (10%)
    Title                            : Namkent | That's why (You go away) - Michael Learn To Rock
    
    
    [hide]Michael.Learn.To.Rock.[Thats.Why.-.You.Go.Away].-.Karaoke._.Namkent.mkv[/hide]​
     
  6. namkent

    namkent New Member

    Tham gia ngày:
    31/5/09
    Bài viết:
    1,283
    Đã được thích:
    7
    Điểm thành tích:
    0
    Nghề nghiệp:
    Sinh viên
    Ðề: Michael Learn To Rock Music Video Collection (HD, DVD, DVDrip, Karaoke,...)

    [​IMG]

    Mã:
    General
    Unique ID                        : 254939556638643870342061756669559767960 (0xBFCB9296D35EBAD190B5D2C7E5F70398)
    
    Format                           : Matroska
    File size                        : 120 MiB
    Duration                         : 4mn 12s
    Overall bit rate                 : 3 985 Kbps
    Encoded date                     : UTC 2010-12-11 09:09:24
    Writing application              : mkvmerge v2.9.8 ('C'est le bon') built on Aug 13 2009 12:49:06
    Writing library                  : libebml v0.7.7 + libmatroska v0.8.1
    
    Video
    ID                               : 1
    Format                           : AVC
    Format/Info                      : Advanced Video Codec
    Format profile                   : High@L3.0
    Format settings, CABAC           : Yes
    Format settings, ReFrames        : 4 frames
    Codec ID                         : V_MPEG4/ISO/AVC
    Duration                         : 4mn 12s
    Nominal bit rate                 : 1 999 Kbps
    Width                            : 720 pixels
    Height                           : 576 pixels
    Display aspect ratio             : 5:4
    Frame rate                       : 25.000 fps
    Standard                         : PAL
    Color space                      : YUV
    Chroma subsampling               : 4:2:0
    Bit depth                        : 8 bits
    Scan type                        : Progressive
    Bits/(Pixel*Frame)               : 0.193
    Title                            : Namkent | That's why (You go away) - Michael Learn To Rock
    Writing library                  : x264 core 98 r1649 c54c47d
    Encoding settings                : cabac=1 / ref=3 / deblock=1:0:0 / analyse=0x3:0x113 / me=hex / subme=7 / psy=1 / psy_rd=1.00:0.00 / mixed_ref=1 / me_range=16 / chroma_me=1 / trellis=1 / 8x8dct=1 / cqm=0 / deadzone=21,11 / fast_pskip=1 / chroma_qp_offset=-2 / threads=3 / sliced_threads=0 / nr=0 / decimate=1 / interlaced=0 / constrained_intra=0 / bframes=3 / b_pyramid=2 / b_adapt=1 / b_bias=0 / direct=1 / weightb=1 / weightp=2 / keyint=250 / keyint_min=25 / scenecut=40 / intra_refresh=0 / rc_lookahead=40 / rc=2pass / mbtree=1 / bitrate=1999 / ratetol=1.0 / qcomp=0.60 / qpmin=10 / qpmax=51 / qpstep=4 / cplxblur=20.0 / qblur=0.5 / ip_ratio=1.40 / aq=1:1.00
    
    Audio #1
    ID                               : 2
    Format                           : PCM
    Codec ID                         : A_PCM/INT/LIT
    Duration                         : 4mn 12s
    Bit rate mode                    : Constant
    Channel(s)                       : 2 channels
    Sampling rate                    : 48.0 KHz
    Bit depth                        : 16 bits
    Title                            : Namkent | That's why (You go away) - Michael Learn To Rock (LCMP)
    
    Audio #2
    ID                               : 3
    Format                           : AC-3
    Format/Info                      : Audio Coding 3
    Mode extension                   : CM (complete main)
    Codec ID                         : A_AC3
    Duration                         : 4mn 12s
    Bit rate mode                    : Constant
    Bit rate                         : 448 Kbps
    Channel(s)                       : 6 channels
    Channel positions                : Front: L C R, Side: L R, LFE
    Sampling rate                    : 48.0 KHz
    Bit depth                        : 16 bits
    Compression mode                 : Lossy
    Stream size                      : 13.5 MiB (11%)
    Title                            : Namkent | That's why (You go away) - Michael Learn To Rock (AC3 5.1)
    
    
    [hide]Michael.Learn.To.Rock.[Thats.Why.-.You.Go.Away].-.Behind.The.Scenes._.Namkent.mkv[/hide]​
     
  7. namkent

    namkent New Member

    Tham gia ngày:
    31/5/09
    Bài viết:
    1,283
    Đã được thích:
    7
    Điểm thành tích:
    0
    Nghề nghiệp:
    Sinh viên
    Ðề: Michael Learn To Rock Music Video Collection (HD, DVD, DVDrip, Karaoke,...)

    [​IMG]

    Mã:
    General
    Unique ID                        : 193449285784595657986640255045297415610 (0x9188FA2B2C9F8B96BE78C98C4F62A5BA)
    
    Format                           : Matroska
    File size                        : 72.0 MiB
    Duration                         : 4mn 0s
    Overall bit rate                 : 2 516 Kbps
    Encoded date                     : UTC 2010-12-11 09:34:00
    Writing application              : mkvmerge v2.9.8 ('C'est le bon') built on Aug 13 2009 12:49:06
    Writing library                  : libebml v0.7.7 + libmatroska v0.8.1
    
    Video
    ID                               : 1
    Format                           : AVC
    Format/Info                      : Advanced Video Codec
    Format profile                   : High@L3.0
    Format settings, CABAC           : Yes
    Format settings, ReFrames        : 4 frames
    Format settings, GOP             : N=1
    Codec ID                         : V_MPEG4/ISO/AVC
    Duration                         : 4mn 0s
    Bit rate                         : 2 000 Kbps
    Width                            : 720 pixels
    Height                           : 576 pixels
    Display aspect ratio             : 5:4
    Frame rate                       : 25.000 fps
    Standard                         : PAL
    Color space                      : YUV
    Chroma subsampling               : 4:2:0
    Bit depth                        : 8 bits
    Scan type                        : Progressive
    Bits/(Pixel*Frame)               : 0.193
    Stream size                      : 55.9 MiB (78%)
    Title                            : Namkent | Complicated heart - Michael Learn To Rock
    Writing library                  : x264 core 98 r1649 c54c47d
    Encoding settings                : cabac=1 / ref=3 / deblock=1:0:0 / analyse=0x3:0x113 / me=hex / subme=7 / psy=1 / psy_rd=1.00:0.00 / mixed_ref=1 / me_range=16 / chroma_me=1 / trellis=1 / 8x8dct=1 / cqm=0 / deadzone=21,11 / fast_pskip=1 / chroma_qp_offset=-2 / threads=3 / sliced_threads=0 / nr=0 / decimate=1 / interlaced=0 / constrained_intra=0 / bframes=3 / b_pyramid=2 / b_adapt=1 / b_bias=0 / direct=1 / weightb=1 / weightp=2 / keyint=250 / keyint_min=25 / scenecut=40 / intra_refresh=0 / rc_lookahead=40 / rc=2pass / mbtree=1 / bitrate=2000 / ratetol=1.0 / qcomp=0.60 / qpmin=10 / qpmax=51 / qpstep=4 / cplxblur=20.0 / qblur=0.5 / ip_ratio=1.40 / aq=1:1.00
    
    Audio #1
    ID                               : 2
    Format                           : AC-3
    Format/Info                      : Audio Coding 3
    Mode extension                   : CM (complete main)
    Codec ID                         : A_AC3
    Duration                         : 4mn 0s
    Bit rate mode                    : Constant
    Bit rate                         : 256 Kbps
    Channel(s)                       : 2 channels
    Channel positions                : Front: L R
    Sampling rate                    : 48.0 KHz
    Bit depth                        : 16 bits
    Compression mode                 : Lossy
    Stream size                      : 7.32 MiB (10%)
    Title                            : Namkent | Complicated heart - Michael Learn To Rock (beat)
    
    Audio #2
    ID                               : 3
    Format                           : AC-3
    Format/Info                      : Audio Coding 3
    Mode extension                   : CM (complete main)
    Codec ID                         : A_AC3
    Duration                         : 4mn 0s
    Bit rate mode                    : Constant
    Bit rate                         : 256 Kbps
    Channel(s)                       : 2 channels
    Channel positions                : Front: L R
    Sampling rate                    : 48.0 KHz
    Bit depth                        : 16 bits
    Compression mode                 : Lossy
    Stream size                      : 7.32 MiB (10%)
    Title                            : Namkent | Complicated heart - Michael Learn To Rock
    
    
    [hide]Michael.Learn.To.Rock.[Complicated.Heart].-.Karaoke._.Namkent.mkv[/hide]​
     
  8. namkent

    namkent New Member

    Tham gia ngày:
    31/5/09
    Bài viết:
    1,283
    Đã được thích:
    7
    Điểm thành tích:
    0
    Nghề nghiệp:
    Sinh viên
    Ðề: Michael Learn To Rock Music Video Collection (HD, DVD, DVDrip, Karaoke,...)

    [​IMG]

    Mã:
    General
    Unique ID                        : 193449285784595657986640255045297415610 (0x9188FA2B2C9F8B96BE78C98C4F62A5BA)
    
    Format                           : Matroska
    File size                        : 72.0 MiB
    Duration                         : 4mn 0s
    Overall bit rate                 : 2 516 Kbps
    Encoded date                     : UTC 2010-12-11 09:34:00
    Writing application              : mkvmerge v2.9.8 ('C'est le bon') built on Aug 13 2009 12:49:06
    Writing library                  : libebml v0.7.7 + libmatroska v0.8.1
    
    Video
    ID                               : 1
    Format                           : AVC
    Format/Info                      : Advanced Video Codec
    Format profile                   : High@L3.0
    Format settings, CABAC           : Yes
    Format settings, ReFrames        : 4 frames
    Format settings, GOP             : N=1
    Codec ID                         : V_MPEG4/ISO/AVC
    Duration                         : 4mn 0s
    Bit rate                         : 2 000 Kbps
    Width                            : 720 pixels
    Height                           : 576 pixels
    Display aspect ratio             : 5:4
    Frame rate                       : 25.000 fps
    Standard                         : PAL
    Color space                      : YUV
    Chroma subsampling               : 4:2:0
    Bit depth                        : 8 bits
    Scan type                        : Progressive
    Bits/(Pixel*Frame)               : 0.193
    Stream size                      : 55.9 MiB (78%)
    Title                            : Namkent | Complicated heart - Michael Learn To Rock
    Writing library                  : x264 core 98 r1649 c54c47d
    Encoding settings                : cabac=1 / ref=3 / deblock=1:0:0 / analyse=0x3:0x113 / me=hex / subme=7 / psy=1 / psy_rd=1.00:0.00 / mixed_ref=1 / me_range=16 / chroma_me=1 / trellis=1 / 8x8dct=1 / cqm=0 / deadzone=21,11 / fast_pskip=1 / chroma_qp_offset=-2 / threads=3 / sliced_threads=0 / nr=0 / decimate=1 / interlaced=0 / constrained_intra=0 / bframes=3 / b_pyramid=2 / b_adapt=1 / b_bias=0 / direct=1 / weightb=1 / weightp=2 / keyint=250 / keyint_min=25 / scenecut=40 / intra_refresh=0 / rc_lookahead=40 / rc=2pass / mbtree=1 / bitrate=2000 / ratetol=1.0 / qcomp=0.60 / qpmin=10 / qpmax=51 / qpstep=4 / cplxblur=20.0 / qblur=0.5 / ip_ratio=1.40 / aq=1:1.00
    
    Audio #1
    ID                               : 2
    Format                           : AC-3
    Format/Info                      : Audio Coding 3
    Mode extension                   : CM (complete main)
    Codec ID                         : A_AC3
    Duration                         : 4mn 0s
    Bit rate mode                    : Constant
    Bit rate                         : 256 Kbps
    Channel(s)                       : 2 channels
    Channel positions                : Front: L R
    Sampling rate                    : 48.0 KHz
    Bit depth                        : 16 bits
    Compression mode                 : Lossy
    Stream size                      : 7.32 MiB (10%)
    Title                            : Namkent | Complicated heart - Michael Learn To Rock (beat)
    
    Audio #2
    ID                               : 3
    Format                           : AC-3
    Format/Info                      : Audio Coding 3
    Mode extension                   : CM (complete main)
    Codec ID                         : A_AC3
    Duration                         : 4mn 0s
    Bit rate mode                    : Constant
    Bit rate                         : 256 Kbps
    Channel(s)                       : 2 channels
    Channel positions                : Front: L R
    Sampling rate                    : 48.0 KHz
    Bit depth                        : 16 bits
    Compression mode                 : Lossy
    Stream size                      : 7.32 MiB (10%)
    Title                            : Namkent | Complicated heart - Michael Learn To Rock
    
    
    [hide]Michael.Learn.To.Rock.[Complicated.Heart].-.Karaoke._.Namkent.mkv[/hide]​
     
  9. namkent

    namkent New Member

    Tham gia ngày:
    31/5/09
    Bài viết:
    1,283
    Đã được thích:
    7
    Điểm thành tích:
    0
    Nghề nghiệp:
    Sinh viên
    Ðề: Michael Learn To Rock Music Video Collection (HD, DVD, DVDrip, Karaoke,...)

    [​IMG]

    Mã:
    General
    Unique ID                        : 210995901798582919045161385961351409461 (0x9EBC552173BA4AED92E8991C5509EF35)
    
    Format                           : Matroska
    File size                        : 87.2 MiB
    Duration                         : 4mn 51s
    Overall bit rate                 : 2 511 Kbps
    Encoded date                     : UTC 2010-12-11 09:41:22
    Writing application              : mkvmerge v2.9.8 ('C'est le bon') built on Aug 13 2009 12:49:06
    Writing library                  : libebml v0.7.7 + libmatroska v0.8.1
    
    Video
    ID                               : 1
    Format                           : AVC
    Format/Info                      : Advanced Video Codec
    Format profile                   : High@L3.0
    Format settings, CABAC           : Yes
    Format settings, ReFrames        : 4 frames
    Codec ID                         : V_MPEG4/ISO/AVC
    Duration                         : 4mn 51s
    Bit rate                         : 1 999 Kbps
    Width                            : 720 pixels
    Height                           : 576 pixels
    Display aspect ratio             : 5:4
    Frame rate                       : 25.000 fps
    Standard                         : PAL
    Color space                      : YUV
    Chroma subsampling               : 4:2:0
    Bit depth                        : 8 bits
    Scan type                        : Progressive
    Bits/(Pixel*Frame)               : 0.193
    Stream size                      : 67.7 MiB (78%)
    Title                            : Namkent | I still carry on - Michael Learn To Rock
    Writing library                  : x264 core 98 r1649 c54c47d
    Encoding settings                : cabac=1 / ref=3 / deblock=1:0:0 / analyse=0x3:0x113 / me=hex / subme=7 / psy=1 / psy_rd=1.00:0.00 / mixed_ref=1 / me_range=16 / chroma_me=1 / trellis=1 / 8x8dct=1 / cqm=0 / deadzone=21,11 / fast_pskip=1 / chroma_qp_offset=-2 / threads=3 / sliced_threads=0 / nr=0 / decimate=1 / interlaced=0 / constrained_intra=0 / bframes=3 / b_pyramid=2 / b_adapt=1 / b_bias=0 / direct=1 / weightb=1 / weightp=2 / keyint=250 / keyint_min=25 / scenecut=40 / intra_refresh=0 / rc_lookahead=40 / rc=2pass / mbtree=1 / bitrate=1999 / ratetol=1.0 / qcomp=0.60 / qpmin=10 / qpmax=51 / qpstep=4 / cplxblur=20.0 / qblur=0.5 / ip_ratio=1.40 / aq=1:1.00
    
    Audio #1
    ID                               : 2
    Format                           : AC-3
    Format/Info                      : Audio Coding 3
    Mode extension                   : CM (complete main)
    Codec ID                         : A_AC3
    Duration                         : 4mn 51s
    Bit rate mode                    : Constant
    Bit rate                         : 256 Kbps
    Channel(s)                       : 2 channels
    Channel positions                : Front: L R
    Sampling rate                    : 48.0 KHz
    Bit depth                        : 16 bits
    Compression mode                 : Lossy
    Stream size                      : 8.89 MiB (10%)
    Title                            : Namkent | I still carry on - Michael Learn To Rock (beat)
    
    Audio #2
    ID                               : 3
    Format                           : AC-3
    Format/Info                      : Audio Coding 3
    Mode extension                   : CM (complete main)
    Codec ID                         : A_AC3
    Duration                         : 4mn 51s
    Bit rate mode                    : Constant
    Bit rate                         : 256 Kbps
    Channel(s)                       : 2 channels
    Channel positions                : Front: L R
    Sampling rate                    : 48.0 KHz
    Bit depth                        : 16 bits
    Compression mode                 : Lossy
    Stream size                      : 8.89 MiB (10%)
    Title                            : Namkent | I still carry on - Michael Learn To Rock
    
    
    [hide]Michael.Learn.To.Rock.[I.Still.Carry.On].-.Karaoke._.Namkent.mkv[hide]​
     
  10. namkent

    namkent New Member

    Tham gia ngày:
    31/5/09
    Bài viết:
    1,283
    Đã được thích:
    7
    Điểm thành tích:
    0
    Nghề nghiệp:
    Sinh viên
    Ðề: Michael Learn To Rock Music Video Collection (HD, DVD, DVDrip, Karaoke,...)

    [​IMG]

    Mã:
    General
    Unique ID                        : 218030265313728183892609913814097633986 (0xA4071A07601CD26394BAA0510DB4A2C2)
    
    Format                           : Matroska
    File size                        : 72.5 MiB
    Duration                         : 4mn 1s
    Overall bit rate                 : 2 516 Kbps
    Encoded date                     : UTC 2010-12-11 11:13:05
    Writing application              : mkvmerge v2.9.8 ('C'est le bon') built on Aug 13 2009 12:49:06
    Writing library                  : libebml v0.7.7 + libmatroska v0.8.1
    
    Video
    ID                               : 1
    Format                           : AVC
    Format/Info                      : Advanced Video Codec
    Format profile                   : High@L3.0
    Format settings, CABAC           : Yes
    Format settings, ReFrames        : 4 frames
    Codec ID                         : V_MPEG4/ISO/AVC
    Duration                         : 4mn 1s
    Bit rate                         : 2 000 Kbps
    Width                            : 720 pixels
    Height                           : 576 pixels
    Display aspect ratio             : 5:4
    Frame rate                       : 25.000 fps
    Standard                         : PAL
    Color space                      : YUV
    Chroma subsampling               : 4:2:0
    Bit depth                        : 8 bits
    Scan type                        : Progressive
    Bits/(Pixel*Frame)               : 0.193
    Stream size                      : 56.3 MiB (78%)
    Title                            : Namkent | Paint my love - Michael Learn To Rock
    Writing library                  : x264 core 98 r1649 c54c47d
    Encoding settings                : cabac=1 / ref=3 / deblock=1:0:0 / analyse=0x3:0x113 / me=hex / subme=7 / psy=1 / psy_rd=1.00:0.00 / mixed_ref=1 / me_range=16 / chroma_me=1 / trellis=1 / 8x8dct=1 / cqm=0 / deadzone=21,11 / fast_pskip=1 / chroma_qp_offset=-2 / threads=3 / sliced_threads=0 / nr=0 / decimate=1 / interlaced=0 / constrained_intra=0 / bframes=3 / b_pyramid=2 / b_adapt=1 / b_bias=0 / direct=1 / weightb=1 / weightp=2 / keyint=250 / keyint_min=25 / scenecut=40 / intra_refresh=0 / rc_lookahead=40 / rc=2pass / mbtree=1 / bitrate=2000 / ratetol=1.0 / qcomp=0.60 / qpmin=10 / qpmax=51 / qpstep=4 / cplxblur=20.0 / qblur=0.5 / ip_ratio=1.40 / aq=1:1.00
    
    Audio #1
    ID                               : 2
    Format                           : AC-3
    Format/Info                      : Audio Coding 3
    Mode extension                   : CM (complete main)
    Codec ID                         : A_AC3
    Duration                         : 4mn 1s
    Bit rate mode                    : Constant
    Bit rate                         : 256 Kbps
    Channel(s)                       : 2 channels
    Channel positions                : Front: L R
    Sampling rate                    : 48.0 KHz
    Bit depth                        : 16 bits
    Compression mode                 : Lossy
    Stream size                      : 7.38 MiB (10%)
    Title                            : Namkent | Paint my love - Michael Learn To Rock (beat)
    
    Audio #2
    ID                               : 3
    Format                           : AC-3
    Format/Info                      : Audio Coding 3
    Mode extension                   : CM (complete main)
    Codec ID                         : A_AC3
    Duration                         : 4mn 1s
    Bit rate mode                    : Constant
    Bit rate                         : 256 Kbps
    Channel(s)                       : 2 channels
    Channel positions                : Front: L R
    Sampling rate                    : 48.0 KHz
    Bit depth                        : 16 bits
    Compression mode                 : Lossy
    Stream size                      : 7.38 MiB (10%)
    Title                            : Namkent | Paint my love - Michael Learn To Rock
    
    
    [hide]Michael.Learn.To.Rock.[Paint.My.Love].-.Karaoke._.Namkent.mkv[/hide]​
     
  11. namkent

    namkent New Member

    Tham gia ngày:
    31/5/09
    Bài viết:
    1,283
    Đã được thích:
    7
    Điểm thành tích:
    0
    Nghề nghiệp:
    Sinh viên
    Ðề: Michael Learn To Rock Music Video Collection (HD, DVD, DVDrip, Karaoke,...)

    [​IMG]

    Mã:
    General
    Unique ID                        : 202969759977158687074815573301674228747 (0x98B28DC968BF1F8BAD1605A01EDDBC0B)
    
    Format                           : Matroska
    File size                        : 66.6 MiB
    Duration                         : 3mn 42s
    Overall bit rate                 : 2 516 Kbps
    Encoded date                     : UTC 2010-12-11 11:11:31
    Writing application              : mkvmerge v2.9.8 ('C'est le bon') built on Aug 13 2009 12:49:06
    Writing library                  : libebml v0.7.7 + libmatroska v0.8.1
    
    Video
    ID                               : 1
    Format                           : AVC
    Format/Info                      : Advanced Video Codec
    Format profile                   : High@L3.0
    Format settings, CABAC           : Yes
    Format settings, ReFrames        : 4 frames
    Codec ID                         : V_MPEG4/ISO/AVC
    Duration                         : 3mn 42s
    Bit rate                         : 2 000 Kbps
    Width                            : 720 pixels
    Height                           : 576 pixels
    Display aspect ratio             : 5:4
    Frame rate                       : 25.000 fps
    Standard                         : PAL
    Color space                      : YUV
    Chroma subsampling               : 4:2:0
    Bit depth                        : 8 bits
    Scan type                        : Progressive
    Bits/(Pixel*Frame)               : 0.193
    Stream size                      : 51.8 MiB (78%)
    Title                            : Namkent | Sleeping child - Michael Learn To Rock
    Writing library                  : x264 core 98 r1649 c54c47d
    Encoding settings                : cabac=1 / ref=3 / deblock=1:0:0 / analyse=0x3:0x113 / me=hex / subme=7 / psy=1 / psy_rd=1.00:0.00 / mixed_ref=1 / me_range=16 / chroma_me=1 / trellis=1 / 8x8dct=1 / cqm=0 / deadzone=21,11 / fast_pskip=1 / chroma_qp_offset=-2 / threads=3 / sliced_threads=0 / nr=0 / decimate=1 / interlaced=0 / constrained_intra=0 / bframes=3 / b_pyramid=2 / b_adapt=1 / b_bias=0 / direct=1 / weightb=1 / weightp=2 / keyint=250 / keyint_min=25 / scenecut=40 / intra_refresh=0 / rc_lookahead=40 / rc=2pass / mbtree=1 / bitrate=2000 / ratetol=1.0 / qcomp=0.60 / qpmin=10 / qpmax=51 / qpstep=4 / cplxblur=20.0 / qblur=0.5 / ip_ratio=1.40 / aq=1:1.00
    
    Audio #1
    ID                               : 2
    Format                           : AC-3
    Format/Info                      : Audio Coding 3
    Mode extension                   : CM (complete main)
    Codec ID                         : A_AC3
    Duration                         : 3mn 42s
    Bit rate mode                    : Constant
    Bit rate                         : 256 Kbps
    Channel(s)                       : 2 channels
    Channel positions                : Front: L R
    Sampling rate                    : 48.0 KHz
    Bit depth                        : 16 bits
    Compression mode                 : Lossy
    Stream size                      : 6.78 MiB (10%)
    Title                            : Namkent | Sleeping child - Michael Learn To Rock (beat)
    
    Audio #2
    ID                               : 3
    Format                           : AC-3
    Format/Info                      : Audio Coding 3
    Mode extension                   : CM (complete main)
    Codec ID                         : A_AC3
    Duration                         : 3mn 42s
    Bit rate mode                    : Constant
    Bit rate                         : 256 Kbps
    Channel(s)                       : 2 channels
    Channel positions                : Front: L R
    Sampling rate                    : 48.0 KHz
    Bit depth                        : 16 bits
    Compression mode                 : Lossy
    Stream size                      : 6.78 MiB (10%)
    Title                            : Namkent | Sleeping child - Michael Learn To Rock
    
    
    [hide]Michael.Learn.To.Rock.[Sleeping.Child].-.Karaoke._.Namkent.mkv[/hide]​
     
  12. namkent

    namkent New Member

    Tham gia ngày:
    31/5/09
    Bài viết:
    1,283
    Đã được thích:
    7
    Điểm thành tích:
    0
    Nghề nghiệp:
    Sinh viên
    Ðề: Michael Learn To Rock Music Video Collection (HD, DVD, DVDrip, Karaoke,...)

    [​IMG]

    Mã:
    General
    Unique ID                        : 187531832304679396297605860431429457361 (0x8D15512FD5805DDE8C8149B3505555D1)
    
    Format                           : Matroska
    File size                        : 103 MiB
    Duration                         : 3mn 36s
    Overall bit rate                 : 3 991 Kbps
    Encoded date                     : UTC 2010-12-11 08:47:25
    Writing application              : mkvmerge v2.9.8 ('C'est le bon') built on Aug 13 2009 12:49:06
    Writing library                  : libebml v0.7.7 + libmatroska v0.8.1
    
    Video
    ID                               : 1
    Format                           : AVC
    Format/Info                      : Advanced Video Codec
    Format profile                   : High@L3.0
    Format settings, CABAC           : Yes
    Format settings, ReFrames        : 4 frames
    Codec ID                         : V_MPEG4/ISO/AVC
    Duration                         : 3mn 36s
    Nominal bit rate                 : 2 000 Kbps
    Width                            : 720 pixels
    Height                           : 576 pixels
    Display aspect ratio             : 5:4
    Frame rate                       : 25.000 fps
    Standard                         : PAL
    Color space                      : YUV
    Chroma subsampling               : 4:2:0
    Bit depth                        : 8 bits
    Scan type                        : Progressive
    Bits/(Pixel*Frame)               : 0.193
    Title                            : Namkent | Sleeping child - Michael Learn To Rock
    Writing library                  : x264 core 98 r1649 c54c47d
    Encoding settings                : cabac=1 / ref=3 / deblock=1:0:0 / analyse=0x3:0x113 / me=hex / subme=7 / psy=1 / psy_rd=1.00:0.00 / mixed_ref=1 / me_range=16 / chroma_me=1 / trellis=1 / 8x8dct=1 / cqm=0 / deadzone=21,11 / fast_pskip=1 / chroma_qp_offset=-2 / threads=3 / sliced_threads=0 / nr=0 / decimate=1 / interlaced=0 / constrained_intra=0 / bframes=3 / b_pyramid=2 / b_adapt=1 / b_bias=0 / direct=1 / weightb=1 / weightp=2 / keyint=250 / keyint_min=25 / scenecut=40 / intra_refresh=0 / rc_lookahead=40 / rc=2pass / mbtree=1 / bitrate=2000 / ratetol=1.0 / qcomp=0.60 / qpmin=10 / qpmax=51 / qpstep=4 / cplxblur=20.0 / qblur=0.5 / ip_ratio=1.40 / aq=1:1.00
    
    Audio #1
    ID                               : 2
    Format                           : PCM
    Codec ID                         : A_PCM/INT/LIT
    Duration                         : 3mn 36s
    Bit rate mode                    : Constant
    Channel(s)                       : 2 channels
    Sampling rate                    : 48.0 KHz
    Bit depth                        : 16 bits
    Title                            : Namkent | Sleeping child - Michael Learn To Rock (LCMP)
    
    Audio #2
    ID                               : 3
    Format                           : AC-3
    Format/Info                      : Audio Coding 3
    Mode extension                   : CM (complete main)
    Codec ID                         : A_AC3
    Duration                         : 3mn 36s
    Bit rate mode                    : Constant
    Bit rate                         : 448 Kbps
    Channel(s)                       : 6 channels
    Channel positions                : Front: L C R, Side: L R, LFE
    Sampling rate                    : 48.0 KHz
    Bit depth                        : 16 bits
    Compression mode                 : Lossy
    Stream size                      : 11.5 MiB (11%)
    Title                            : Namkent | Sleeping child - Michael Learn To Rock (AC3 5.1)
    
    
    [hide]Michael.Learn.To.Rock.[Sleeping.Child]._.Namkent.mkv[/hide]​
     
  13. namkent

    namkent New Member

    Tham gia ngày:
    31/5/09
    Bài viết:
    1,283
    Đã được thích:
    7
    Điểm thành tích:
    0
    Nghề nghiệp:
    Sinh viên
    Ðề: Michael Learn To Rock Music Video Collection (HD, DVD, DVDrip, Karaoke,...)

    [​IMG]

    Mã:
    General
    Unique ID                        : 202283284548751086599357784178491377408 (0x982E57EF5D0252799EA3BFAEF4F7C700)
    
    Format                           : Matroska
    File size                        : 88.1 MiB
    Duration                         : 4mn 53s
    Overall bit rate                 : 2 515 Kbps
    Encoded date                     : UTC 2010-12-11 09:35:48
    Writing application              : mkvmerge v2.9.8 ('C'est le bon') built on Aug 13 2009 12:49:06
    Writing library                  : libebml v0.7.7 + libmatroska v0.8.1
    
    Video
    ID                               : 1
    Format                           : AVC
    Format/Info                      : Advanced Video Codec
    Format profile                   : High@L3.0
    Format settings, CABAC           : Yes
    Format settings, ReFrames        : 4 frames
    Format settings, GOP             : N=1
    Codec ID                         : V_MPEG4/ISO/AVC
    Duration                         : 4mn 53s
    Bit rate                         : 1 999 Kbps
    Width                            : 720 pixels
    Height                           : 576 pixels
    Display aspect ratio             : 5:4
    Frame rate                       : 25.000 fps
    Standard                         : PAL
    Color space                      : YUV
    Chroma subsampling               : 4:2:0
    Bit depth                        : 8 bits
    Scan type                        : Progressive
    Bits/(Pixel*Frame)               : 0.193
    Stream size                      : 68.4 MiB (78%)
    Title                            : Namkent | How many how - Michael Learn To Rock
    Writing library                  : x264 core 98 r1649 c54c47d
    Encoding settings                : cabac=1 / ref=3 / deblock=1:0:0 / analyse=0x3:0x113 / me=hex / subme=7 / psy=1 / psy_rd=1.00:0.00 / mixed_ref=1 / me_range=16 / chroma_me=1 / trellis=1 / 8x8dct=1 / cqm=0 / deadzone=21,11 / fast_pskip=1 / chroma_qp_offset=-2 / threads=3 / sliced_threads=0 / nr=0 / decimate=1 / interlaced=0 / constrained_intra=0 / bframes=3 / b_pyramid=2 / b_adapt=1 / b_bias=0 / direct=1 / weightb=1 / weightp=2 / keyint=250 / keyint_min=25 / scenecut=40 / intra_refresh=0 / rc_lookahead=40 / rc=2pass / mbtree=1 / bitrate=1999 / ratetol=1.0 / qcomp=0.60 / qpmin=10 / qpmax=51 / qpstep=4 / cplxblur=20.0 / qblur=0.5 / ip_ratio=1.40 / aq=1:1.00
    
    Audio #1
    ID                               : 2
    Format                           : AC-3
    Format/Info                      : Audio Coding 3
    Mode extension                   : CM (complete main)
    Codec ID                         : A_AC3
    Duration                         : 4mn 53s
    Bit rate mode                    : Constant
    Bit rate                         : 256 Kbps
    Channel(s)                       : 2 channels
    Channel positions                : Front: L R
    Sampling rate                    : 48.0 KHz
    Bit depth                        : 16 bits
    Compression mode                 : Lossy
    Stream size                      : 8.96 MiB (10%)
    Title                            : Namkent | How many how - Michael Learn To Rock (beat)
    
    Audio #2
    ID                               : 3
    Format                           : AC-3
    Format/Info                      : Audio Coding 3
    Mode extension                   : CM (complete main)
    Codec ID                         : A_AC3
    Duration                         : 4mn 53s
    Bit rate mode                    : Constant
    Bit rate                         : 256 Kbps
    Channel(s)                       : 2 channels
    Channel positions                : Front: L R
    Sampling rate                    : 48.0 KHz
    Bit depth                        : 16 bits
    Compression mode                 : Lossy
    Stream size                      : 8.96 MiB (10%)
    Title                            : Namkent | How many how - Michael Learn To Rock
    
    
    [hide]Michael.Learn.To.Rock.[How.Many.How].-.Karaoke._.Namkent.mkv[/hide]​
     
  14. namkent

    namkent New Member

    Tham gia ngày:
    31/5/09
    Bài viết:
    1,283
    Đã được thích:
    7
    Điểm thành tích:
    0
    Nghề nghiệp:
    Sinh viên
    Ðề: Michael Learn To Rock Music Video Collection (HD, DVD, DVDrip, Karaoke,...)

    [​IMG]

    Mã:
    General
    Unique ID                        : 224160162394226016880798162757221231217 (0xA8A3AD49EECA090A909B74BB84DE2A71)
    
    Format                           : Matroska
    File size                        : 70.0 MiB
    Duration                         : 3mn 53s
    Overall bit rate                 : 2 517 Kbps
    Encoded date                     : UTC 2010-12-11 10:51:59
    Writing application              : mkvmerge v2.9.8 ('C'est le bon') built on Aug 13 2009 12:49:06
    Writing library                  : libebml v0.7.7 + libmatroska v0.8.1
    
    Video
    ID                               : 1
    Format                           : AVC
    Format/Info                      : Advanced Video Codec
    Format profile                   : High@L3.0
    Format settings, CABAC           : Yes
    Format settings, ReFrames        : 4 frames
    Codec ID                         : V_MPEG4/ISO/AVC
    Duration                         : 3mn 53s
    Bit rate                         : 1 999 Kbps
    Width                            : 720 pixels
    Height                           : 576 pixels
    Display aspect ratio             : 5:4
    Frame rate                       : 25.000 fps
    Standard                         : PAL
    Color space                      : YUV
    Chroma subsampling               : 4:2:0
    Bit depth                        : 8 bits
    Scan type                        : Progressive
    Bits/(Pixel*Frame)               : 0.193
    Stream size                      : 54.4 MiB (78%)
    Title                            : Namkent | Some day
    Writing library                  : x264 core 98 r1649 c54c47d
    Encoding settings                : cabac=1 / ref=3 / deblock=1:0:0 / analyse=0x3:0x113 / me=hex / subme=7 / psy=1 / psy_rd=1.00:0.00 / mixed_ref=1 / me_range=16 / chroma_me=1 / trellis=1 / 8x8dct=1 / cqm=0 / deadzone=21,11 / fast_pskip=1 / chroma_qp_offset=-2 / threads=3 / sliced_threads=0 / nr=0 / decimate=1 / interlaced=0 / constrained_intra=0 / bframes=3 / b_pyramid=2 / b_adapt=1 / b_bias=0 / direct=1 / weightb=1 / weightp=2 / keyint=250 / keyint_min=25 / scenecut=40 / intra_refresh=0 / rc_lookahead=40 / rc=2pass / mbtree=1 / bitrate=1999 / ratetol=1.0 / qcomp=0.60 / qpmin=10 / qpmax=51 / qpstep=4 / cplxblur=20.0 / qblur=0.5 / ip_ratio=1.40 / aq=1:1.00
    
    Audio #1
    ID                               : 2
    Format                           : AC-3
    Format/Info                      : Audio Coding 3
    Mode extension                   : CM (complete main)
    Codec ID                         : A_AC3
    Duration                         : 3mn 53s
    Bit rate mode                    : Constant
    Bit rate                         : 256 Kbps
    Channel(s)                       : 2 channels
    Channel positions                : Front: L R
    Sampling rate                    : 48.0 KHz
    Bit depth                        : 16 bits
    Compression mode                 : Lossy
    Stream size                      : 7.12 MiB (10%)
    
    Audio #2
    ID                               : 3
    Format                           : AC-3
    Format/Info                      : Audio Coding 3
    Mode extension                   : CM (complete main)
    Codec ID                         : A_AC3
    Duration                         : 3mn 53s
    Bit rate mode                    : Constant
    Bit rate                         : 256 Kbps
    Channel(s)                       : 2 channels
    Channel positions                : Front: L R
    Sampling rate                    : 48.0 KHz
    Bit depth                        : 16 bits
    Compression mode                 : Lossy
    Stream size                      : 7.12 MiB (10%)
    
    
    [hide]Michael.Learn.To.Rock.[Someday].-.Karaoke._.Namkent.mkv[/hide]​
     
  15. namkent

    namkent New Member

    Tham gia ngày:
    31/5/09
    Bài viết:
    1,283
    Đã được thích:
    7
    Điểm thành tích:
    0
    Nghề nghiệp:
    Sinh viên
    Ðề: Michael Learn To Rock Music Video Collection (HD, DVD, DVDrip, Karaoke,...)

    [​IMG]

    Mã:
    General
    Unique ID                        : 237172643859250797714024795213531817665 (0xB26DCA28749C2709A9271588EDB9A6C1)
    
    Format                           : Matroska
    File size                        : 66.9 MiB
    Duration                         : 3mn 43s
    Overall bit rate                 : 2 510 Kbps
    Encoded date                     : UTC 2010-12-11 09:44:08
    Writing application              : mkvmerge v2.9.8 ('C'est le bon') built on Aug 13 2009 12:49:06
    Writing library                  : libebml v0.7.7 + libmatroska v0.8.1
    
    Video
    ID                               : 1
    Format                           : AVC
    Format/Info                      : Advanced Video Codec
    Format profile                   : High@L3.0
    Format settings, CABAC           : Yes
    Format settings, ReFrames        : 4 frames
    Codec ID                         : V_MPEG4/ISO/AVC
    Duration                         : 3mn 43s
    Bit rate                         : 1 999 Kbps
    Width                            : 720 pixels
    Height                           : 576 pixels
    Display aspect ratio             : 5:4
    Frame rate                       : 25.000 fps
    Standard                         : PAL
    Color space                      : YUV
    Chroma subsampling               : 4:2:0
    Bit depth                        : 8 bits
    Scan type                        : Progressive
    Bits/(Pixel*Frame)               : 0.193
    Stream size                      : 52.0 MiB (78%)
    Title                            : Namkent | Love will never lie - Michael Learn To Rock
    Writing library                  : x264 core 98 r1649 c54c47d
    Encoding settings                : cabac=1 / ref=3 / deblock=1:0:0 / analyse=0x3:0x113 / me=hex / subme=7 / psy=1 / psy_rd=1.00:0.00 / mixed_ref=1 / me_range=16 / chroma_me=1 / trellis=1 / 8x8dct=1 / cqm=0 / deadzone=21,11 / fast_pskip=1 / chroma_qp_offset=-2 / threads=3 / sliced_threads=0 / nr=0 / decimate=1 / interlaced=0 / constrained_intra=0 / bframes=3 / b_pyramid=2 / b_adapt=1 / b_bias=0 / direct=1 / weightb=1 / weightp=2 / keyint=250 / keyint_min=25 / scenecut=40 / intra_refresh=0 / rc_lookahead=40 / rc=2pass / mbtree=1 / bitrate=1999 / ratetol=1.0 / qcomp=0.60 / qpmin=10 / qpmax=51 / qpstep=4 / cplxblur=20.0 / qblur=0.5 / ip_ratio=1.40 / aq=1:1.00
    
    Audio #1
    ID                               : 2
    Format                           : AC-3
    Format/Info                      : Audio Coding 3
    Mode extension                   : CM (complete main)
    Codec ID                         : A_AC3
    Duration                         : 3mn 43s
    Bit rate mode                    : Constant
    Bit rate                         : 256 Kbps
    Channel(s)                       : 2 channels
    Channel positions                : Front: L R
    Sampling rate                    : 48.0 KHz
    Bit depth                        : 16 bits
    Compression mode                 : Lossy
    Stream size                      : 6.83 MiB (10%)
    Title                            : Namkent | Love will never lie - Michael Learn To Rock (beat)
    
    Audio #2
    ID                               : 3
    Format                           : AC-3
    Format/Info                      : Audio Coding 3
    Mode extension                   : CM (complete main)
    Codec ID                         : A_AC3
    Duration                         : 3mn 43s
    Bit rate mode                    : Constant
    Bit rate                         : 256 Kbps
    Channel(s)                       : 2 channels
    Channel positions                : Front: L R
    Sampling rate                    : 48.0 KHz
    Bit depth                        : 16 bits
    Compression mode                 : Lossy
    Stream size                      : 6.83 MiB (10%)
    Title                            : Namkent | Love will never lie - Michael Learn To Rock
    
    
    [hide]Michael.Learn.To.Rock.[Love.Will.Never.Lie].-.Karaoke._.Namkent.mkv[/hide]​
     
  16. namkent

    namkent New Member

    Tham gia ngày:
    31/5/09
    Bài viết:
    1,283
    Đã được thích:
    7
    Điểm thành tích:
    0
    Nghề nghiệp:
    Sinh viên
    Ðề: Michael Learn To Rock Music Video Collection (HD, DVD, DVDrip, Karaoke,...)

    [​IMG]

    Mã:
    General
    Unique ID                        : 181023350295712399315643984835585030256 (0x882FD43FAFC8AF9AA3E830D15934B870)
    
    Format                           : Matroska
    File size                        : 81.5 MiB
    Duration                         : 4mn 32s
    Overall bit rate                 : 2 512 Kbps
    Encoded date                     : UTC 2010-12-11 10:45:35
    Writing application              : mkvmerge v2.9.8 ('C'est le bon') built on Aug 13 2009 12:49:06
    Writing library                  : libebml v0.7.7 + libmatroska v0.8.1
    
    Video
    ID                               : 1
    Format                           : AVC
    Format/Info                      : Advanced Video Codec
    Format profile                   : High@L3.0
    Format settings, CABAC           : Yes
    Format settings, ReFrames        : 4 frames
    Codec ID                         : V_MPEG4/ISO/AVC
    Duration                         : 4mn 32s
    Bit rate                         : 1 999 Kbps
    Width                            : 720 pixels
    Height                           : 576 pixels
    Display aspect ratio             : 5:4
    Frame rate                       : 25.000 fps
    Standard                         : PAL
    Color space                      : YUV
    Chroma subsampling               : 4:2:0
    Bit depth                        : 8 bits
    Scan type                        : Progressive
    Bits/(Pixel*Frame)               : 0.193
    Stream size                      : 63.3 MiB (78%)
    Title                            : Namkent | Out of the blue - Michael Learn To Rock
    Writing library                  : x264 core 98 r1649 c54c47d
    Encoding settings                : cabac=1 / ref=3 / deblock=1:0:0 / analyse=0x3:0x113 / me=hex / subme=7 / psy=1 / psy_rd=1.00:0.00 / mixed_ref=1 / me_range=16 / chroma_me=1 / trellis=1 / 8x8dct=1 / cqm=0 / deadzone=21,11 / fast_pskip=1 / chroma_qp_offset=-2 / threads=3 / sliced_threads=0 / nr=0 / decimate=1 / interlaced=0 / constrained_intra=0 / bframes=3 / b_pyramid=2 / b_adapt=1 / b_bias=0 / direct=1 / weightb=1 / weightp=2 / keyint=250 / keyint_min=25 / scenecut=40 / intra_refresh=0 / rc_lookahead=40 / rc=2pass / mbtree=1 / bitrate=1999 / ratetol=1.0 / qcomp=0.60 / qpmin=10 / qpmax=51 / qpstep=4 / cplxblur=20.0 / qblur=0.5 / ip_ratio=1.40 / aq=1:1.00
    
    Audio #1
    ID                               : 2
    Format                           : AC-3
    Format/Info                      : Audio Coding 3
    Mode extension                   : CM (complete main)
    Codec ID                         : A_AC3
    Duration                         : 4mn 32s
    Bit rate mode                    : Constant
    Bit rate                         : 256 Kbps
    Channel(s)                       : 2 channels
    Channel positions                : Front: L R
    Sampling rate                    : 48.0 KHz
    Bit depth                        : 16 bits
    Compression mode                 : Lossy
    Stream size                      : 8.31 MiB (10%)
    Title                            : Namkent | Out of the blue - Michael Learn To Rock (beat)
    
    Audio #2
    ID                               : 3
    Format                           : AC-3
    Format/Info                      : Audio Coding 3
    Mode extension                   : CM (complete main)
    Codec ID                         : A_AC3
    Duration                         : 4mn 32s
    Bit rate mode                    : Constant
    Bit rate                         : 256 Kbps
    Channel(s)                       : 2 channels
    Channel positions                : Front: L R
    Sampling rate                    : 48.0 KHz
    Bit depth                        : 16 bits
    Compression mode                 : Lossy
    Stream size                      : 8.31 MiB (10%)
    Title                            : Namkent | Out of the blue - Michael Learn To Rock
    
    
    [hide]Michael.Learn.To.Rock.[Out.Of.The.Blue].-.Karaoke._.Namkent.mkv[/hide]​
     
  17. namkent

    namkent New Member

    Tham gia ngày:
    31/5/09
    Bài viết:
    1,283
    Đã được thích:
    7
    Điểm thành tích:
    0
    Nghề nghiệp:
    Sinh viên
    Ðề: Michael Learn To Rock Music Video Collection (HD, DVD, DVDrip, Karaoke,...)

    [​IMG]

    Mã:
    General
    Unique ID                        : 217842585287134036050619466831278143284 (0xA3E2F4B0679AB4C2B01AE121AA807734)
    
    Format                           : Matroska
    File size                        : 60.5 MiB
    Duration                         : 4mn 0s
    Overall bit rate                 : 2 114 Kbps
    Encoded date                     : UTC 2010-12-11 02:14:08
    Writing application              : mkvmerge v2.9.8 ('C'est le bon') built on Aug 13 2009 12:49:06
    Writing library                  : libebml v0.7.7 + libmatroska v0.8.1
    
    Video
    ID                               : 1
    Format                           : AVC
    Format/Info                      : Advanced Video Codec
    Format profile                   : High@L5.1
    Format settings, CABAC           : Yes
    Format settings, ReFrames        : 2 frames
    Codec ID                         : V_MPEG4/ISO/AVC
    Duration                         : 4mn 0s
    Bit rate                         : 1 944 Kbps
    Width                            : 720 pixels
    Height                           : 400 pixels
    Display aspect ratio             : 16:9
    Frame rate                       : 25.000 fps
    Color space                      : YUV
    Chroma subsampling               : 4:2:0
    Bit depth                        : 8 bits
    Scan type                        : Progressive
    Bits/(Pixel*Frame)               : 0.270
    Stream size                      : 55.6 MiB (92%)
    Title                            : Namkent | I'm gonna be around - Michael Learn To Rock
    
    Audio
    ID                               : 2
    Format                           : MPEG Audio
    Format version                   : Version 1
    Format profile                   : Layer 3
    Codec ID                         : A_MPEG/L3
    Codec ID/Hint                    : MP3
    Duration                         : 4mn 0s
    Bit rate mode                    : Constant
    Bit rate                         : 128 Kbps
    Channel(s)                       : 2 channels
    Sampling rate                    : 44.1 KHz
    Compression mode                 : Lossy
    Stream size                      : 3.66 MiB (6%)
    Title                            : Namkent | I'm gonna be around - Michael Learn To Rock
    
    
    [hide]Michael.Learns.To.Rock.-.[Im.Gonna.Be.Around]._.Namkent.mkv[/hide]​
     
  18. namkent

    namkent New Member

    Tham gia ngày:
    31/5/09
    Bài viết:
    1,283
    Đã được thích:
    7
    Điểm thành tích:
    0
    Nghề nghiệp:
    Sinh viên
    Ðề: Michael Learn To Rock Music Video Collection (HD, DVD, DVDrip, Karaoke,...)

    [​IMG]

    Mã:
    General
    Unique ID                        : 239763231627305803927550089316917208098 (0xB460B7FF0B3045F7AC66B8ECF5926422)
    
    Format                           : Matroska
    File size                        : 74.9 MiB
    Duration                         : 4mn 9s
    Overall bit rate                 : 2 523 Kbps
    Encoded date                     : UTC 2010-12-11 11:14:25
    Writing application              : mkvmerge v2.9.8 ('C'est le bon') built on Aug 13 2009 12:49:06
    Writing library                  : libebml v0.7.7 + libmatroska v0.8.1
    
    Video
    ID                               : 1
    Format                           : AVC
    Format/Info                      : Advanced Video Codec
    Format profile                   : High@L3.0
    Format settings, CABAC           : Yes
    Format settings, ReFrames        : 4 frames
    Codec ID                         : V_MPEG4/ISO/AVC
    Duration                         : 4mn 9s
    Bit rate                         : 2 000 Kbps
    Width                            : 720 pixels
    Height                           : 576 pixels
    Display aspect ratio             : 5:4
    Frame rate                       : 25.000 fps
    Standard                         : PAL
    Color space                      : YUV
    Chroma subsampling               : 4:2:0
    Bit depth                        : 8 bits
    Scan type                        : Progressive
    Bits/(Pixel*Frame)               : 0.193
    Stream size                      : 58.2 MiB (78%)
    Title                            : Namkent | Strange foreign beauty - Michael Learn To Rock
    Writing library                  : x264 core 98 r1649 c54c47d
    Encoding settings                : cabac=1 / ref=3 / deblock=1:0:0 / analyse=0x3:0x113 / me=hex / subme=7 / psy=1 / psy_rd=1.00:0.00 / mixed_ref=1 / me_range=16 / chroma_me=1 / trellis=1 / 8x8dct=1 / cqm=0 / deadzone=21,11 / fast_pskip=1 / chroma_qp_offset=-2 / threads=3 / sliced_threads=0 / nr=0 / decimate=1 / interlaced=0 / constrained_intra=0 / bframes=3 / b_pyramid=2 / b_adapt=1 / b_bias=0 / direct=1 / weightb=1 / weightp=2 / keyint=250 / keyint_min=25 / scenecut=40 / intra_refresh=0 / rc_lookahead=40 / rc=2pass / mbtree=1 / bitrate=2000 / ratetol=1.0 / qcomp=0.60 / qpmin=10 / qpmax=51 / qpstep=4 / cplxblur=20.0 / qblur=0.5 / ip_ratio=1.40 / aq=1:1.00
    
    Audio #1
    ID                               : 2
    Format                           : AC-3
    Format/Info                      : Audio Coding 3
    Mode extension                   : CM (complete main)
    Codec ID                         : A_AC3
    Duration                         : 4mn 9s
    Bit rate mode                    : Constant
    Bit rate                         : 256 Kbps
    Channel(s)                       : 2 channels
    Channel positions                : Front: L R
    Sampling rate                    : 48.0 KHz
    Bit depth                        : 16 bits
    Compression mode                 : Lossy
    Stream size                      : 7.60 MiB (10%)
    Title                            : Namkent | Strange foreign beauty - Michael Learn To Rock (beat)
    
    Audio #2
    ID                               : 3
    Format                           : AC-3
    Format/Info                      : Audio Coding 3
    Mode extension                   : CM (complete main)
    Codec ID                         : A_AC3
    Duration                         : 4mn 9s
    Bit rate mode                    : Constant
    Bit rate                         : 256 Kbps
    Channel(s)                       : 2 channels
    Channel positions                : Front: L R
    Sampling rate                    : 48.0 KHz
    Bit depth                        : 16 bits
    Compression mode                 : Lossy
    Stream size                      : 7.60 MiB (10%)
    Title                            : Namkent | Strange foreign beauty - Michael Learn To Rock
    
    
    [hide]Michael.Learn.To.Rock.[Strange.Foreign.Beauty].-.Karaoke._.Namkent.mkv[/hide]​
     
  19. namkent

    namkent New Member

    Tham gia ngày:
    31/5/09
    Bài viết:
    1,283
    Đã được thích:
    7
    Điểm thành tích:
    0
    Nghề nghiệp:
    Sinh viên
    Ðề: Michael Learn To Rock Music Video Collection (HD, DVD, DVDrip, Karaoke,...)

    [​IMG]

    Mã:
    General
    Unique ID                        : 221512921446617973940032116395416111842 (0xA6A5D63BB040282B9D7015D0468E4AE2)
    
    Format                           : Matroska
    File size                        : 62.9 MiB
    Duration                         : 4mn 10s
    Overall bit rate                 : 2 104 Kbps
    Encoded date                     : UTC 2010-12-11 04:14:58
    Writing application              : mkvmerge v2.8.0 ('The Tree') built on May  9 2009 16:17:12
    Writing library                  : libebml v0.7.7 + libmatroska v0.8.1
    
    Video
    ID                               : 1
    Format                           : AVC
    Format/Info                      : Advanced Video Codec
    Format profile                   : High@L5.1
    Format settings, CABAC           : Yes
    Format settings, ReFrames        : 2 frames
    Codec ID                         : V_MPEG4/ISO/AVC
    Duration                         : 4mn 10s
    Bit rate                         : 1 934 Kbps
    Width                            : 720 pixels
    Height                           : 576 pixels
    Display aspect ratio             : 5:4
    Frame rate                       : 25.000 fps
    Standard                         : PAL
    Color space                      : YUV
    Chroma subsampling               : 4:2:0
    Bit depth                        : 8 bits
    Scan type                        : Progressive
    Bits/(Pixel*Frame)               : 0.187
    Stream size                      : 57.8 MiB (92%)
    Title                            : Namkent | That's why (You go away) - Michael Learn To Rock
    
    Audio
    ID                               : 2
    Format                           : MPEG Audio
    Format version                   : Version 1
    Format profile                   : Layer 3
    Codec ID                         : A_MPEG/L3
    Codec ID/Hint                    : MP3
    Duration                         : 4mn 10s
    Bit rate mode                    : Constant
    Bit rate                         : 128 Kbps
    Channel(s)                       : 2 channels
    Sampling rate                    : 44.1 KHz
    Compression mode                 : Lossy
    Stream size                      : 3.83 MiB (6%)
    Title                            : Namkent | That's why (You go away) - Michael Learn To Rock
    
    
    [hide]Michael.Learns.To.Rock.-.[Thats.Why]._.Namkent.mkv[/hide]​
     
  20. namkent

    namkent New Member

    Tham gia ngày:
    31/5/09
    Bài viết:
    1,283
    Đã được thích:
    7
    Điểm thành tích:
    0
    Nghề nghiệp:
    Sinh viên
    Ðề: Michael Learn To Rock Music Video Collection (HD, DVD, DVDrip, Karaoke,...)

    còn nhiều bài đã đăng rồi, tại nhiều quá nên lẫn hết cả lên :D
    các bạn chịu khó tìm nhé :D mấy bài trong list kia chưa cập nhật hết bài trong topic đâu ;)) còn thiếu đấy
     

Chia sẻ trang này