[Fshare] MTV Video Music Awards 2014 (Main show)[HDTV.1080i.MPEG2]

Thảo luận trong 'US-EU' bắt đầu bởi ahuyblog, 2/9/14.

  1. ahuyblog

    ahuyblog Well-Known Member

    Tham gia ngày:
    4/10/10
    Bài viết:
    3,318
    Đã được cảm ơn:
    84,046
    Giới tính:
    Nam
    Nghề nghiệp:
    Chăn trâu
    Nơi ở:
    Chuồng trâu
    Web:
    MTV Video Music Awards 2014 (Main show)[HDTV.1080i.MPEG2]

    [​IMG]

    Thông tin về show
    2014 MTV Video Music Awards - Wikipedia, the free encyclopedia


    [​IMG]

    Mã:
    Format                         : MPEG-TS
    File size                      : 10.2 GiB
    Duration                       : 1h 29mn
    Overall bit rate mode          : Variable
    Overall bit rate               : 16.3 Mbps
    Video
    ID                             : 6411 (0x190B)
    Menu ID                        : 1 (0x1)
    Format                         : MPEG Video
    Format version                 : Version 2
    
    
    Format profile                 : Main@High
    Format settings, BVOP          : No
    Format settings, Matrix        : Custom
    Format settings, GOP           : M=3, N=15
    Codec ID                       : 2
    Duration                       : 1h 29mn
    Bit rate mode                  : Variable
    Bit rate                       : 15.1 Mbps
    Maximum bit rate               : 16.0 Mbps
    Width                          : 1 920 pixels
    Height                         : 1 080 pixels
    Display aspect ratio           : 16:9
    Frame rate                     : 29.970 fps
    Color space                    : YUV
    Chroma subsampling             : 4:2:0
    Bit depth                      : 8 bits
    Scan type                      : Interlaced
    Scan order                     : Top Field First
    Compression mode               : Lossy
    Bits/(Pixel*Frame)             : 0.243
    Time code of first frame       : 00:00:00;00
    Time code source               : Group of pictures header
    Stream size                    : 9.50 GiB (93%)
    Audio
    ID                             : 6412 (0x190C)
    Menu ID                        : 1 (0x1)
    Format                         : AC-3
    Format/Info                    : Audio Coding 3
    Mode extension                 : CM (complete main)
    Format settings, Endianness    : Big
    Codec ID                       : 129
    Duration                       : 1h 29mn
    Bit rate mode                  : Constant
    Bit rate                       : 384 Kbps
    Channel(s)                     : 2 channels
    Channel positions              : Front: L R
    Sampling rate                  : 48.0 KHz
    Bit depth                      : 16 bits
    Compression mode               : Lossy
    Stream size                    : 247 MiB (2%)
    Language                       : English
    
    Nhấn nút Cảm ơn (dưới chân bài) để thấy link!
     
    le huy trac, dongca, 2158 and 9 others like this.
  2. ronduong

    ronduong Well-Known Member

    Tham gia ngày:
    7/6/11
    Bài viết:
    1,770
    Đã được cảm ơn:
    6,243
    Giới tính:
    Nam
    Nơi ở:
    Việt Nam
    Ðề: MTV Video Music Awards 2014 (Main show)[HDTV.1080i.MPEG2]

    thanks bác đã share:D
     
  3. bladies

    bladies Active Member

    Tham gia ngày:
    7/5/10
    Bài viết:
    657
    Đã được cảm ơn:
    43
    Ðề: MTV Video Music Awards 2014 (Main show)[HDTV.1080i.MPEG2]

    Cảm ơn bác đã share, nếu có thêm cái Billboard nữa thì quá ngon !
     
  4. itismenow

    itismenow Member

    Tham gia ngày:
    4/4/12
    Bài viết:
    43
    Đã được cảm ơn:
    7
    Ðề: MTV Video Music Awards 2014 (Main show)[HDTV.1080i.MPEG2]

    thanks bác đã share
     
  5. minhxiteen96

    minhxiteen96 Member

    Tham gia ngày:
    15/8/10
    Bài viết:
    34
    Đã được cảm ơn:
    16
    reup đi bác ơi, link die rồi
     

Chia sẻ trang này