[Mega] [MV] [141106] Cross Gene - I'm Not A Boy, Not Yet A Man (Clean//1080P//MP4//280M)

Thảo luận trong 'Asia' bắt đầu bởi vshare, 2/2/15.

  1. vshare

    vshare Member

    Tham gia ngày:
    24/6/12
    Bài viết:
    55
    Đã được cảm ơn:
    13
    Điểm thành tích:
    8
    Tiền:
    179 CR
    [video=youtube;_M9SmNvIJug]https://www.youtube.com/watch?v=_M9SmNvIJug[/video]
    MEDIA INFORMATION

    Video

    ID : 1
    Format : AVC
    Format/Info : Advanced Video Codec
    Format profile : Main@L4.0
    Format settings, CABAC : No
    Format settings, ReFrames : 3 frames
    Format settings, GOP : M=2, N=24
    Codec ID : avc1
    Codec ID/Info : Advanced Video Coding
    Duration : 3mn 49s
    Bit rate : 9 997 Kbps
    Width : 1 920 pixels
    Height : 1 080 pixels
    Display aspect ratio : 16:9
    Frame rate mode : Constant
    Frame rate : 23.976 fps
    Standard : NTSC
    Color space : YUV
    Chroma subsampling : 4:2:0
    Bit depth : 8 bits
    Scan type : Progressive
    Bits/(Pixel*Frame) : 0.201
    Stream size : 273 MiB (99%)
    Language : English
    Encoded date : UTC 2014-11-05 06:49:13
    Tagged date : UTC 2014-11-05 06:49:13
    Color primaries : BT.709
    Transfer characteristics : BT.709
    Matrix coefficients : BT.709

    Audio
    ID : 2
    Format : AAC
    Format/Info : Advanced Audio Codec
    Format profile : LC
    Codec ID : 40
    Duration : 3mn 49s
    Bit rate mode : Constant
    Bit rate : 128 Kbps
    Channel count : 2 channels
    Channel positions : Front: L R
    Sampling rate : 48.0 KHz
    Compression mode : Lossy
    Delay relative to video : 42ms
    Stream size : 3.54 MiB (1%)
    Language : English
    Encoded date : UTC 2014-11-05 06:49:13
    Tagged date : UTC 2014-11-05 06:49:13
    Link tải phim
    Nhấn nút Cảm ơn (dưới chân bài) để thấy link!
     
    wificafelc, tinhyeu44 and mogando668 like this.
  2. mogando668

    mogando668 New Member

    Tham gia ngày:
    19/5/18
    Bài viết:
    4
    Đã được cảm ơn:
    0
    Điểm thành tích:
    1
    Tiền:
    4 CR
    thanks
     

Chia sẻ trang này