[MF] [MV] Lee Seung Chul - No One Else (More Than Blue OST) [720p.x264.ac3]

Thảo luận trong 'Asia' bắt đầu bởi namkent, 26/3/11.

  1. namkent

    namkent Well-Known Member

    Tham gia ngày:
    31/5/09
    Bài viết:
    1,280
    Đã được cảm ơn:
    374
    Nghề nghiệp:
    Sinh viên
    [​IMG]

    Mã:
    General
    Unique ID                        : 37768253698829535212934488058754295463 (0x1C69E6ACD2D7F7D88E42EC9F4114E6A7)
    
    
    	

    Format : Matroska

    File size : 154 MiB Duration : 4mn 25s Overall bit rate : 4 860 Kbps Movie name : Namkent@HDvietnam.com | Lee Seung Chul - No One Else (More Than Blue OST) Writing application : AVI-Mux GUI 1.17.8, Aug 30 2008 12:36:58 Writing library : matroska muxer by Alexander Noe, build date Aug 30 2008 Video ID : 1 Format : AVC Format/Info : Advanced Video Codec Format profile : High@L3.1 Format settings, CABAC : Yes Format settings, ReFrames : 4 frames Codec ID : V_MPEG4/ISO/AVC Duration : 4mn 25s Bit rate : 4 499 Kbps Width : 1 280 pixels Height : 720 pixels Display aspect ratio : 16:9 Frame rate : 29.970 fps Color space : YUV Chroma subsampling : 4:2:0 Bit depth : 8 bits Scan type : Progressive Bits/(Pixel*Frame) : 0.163 Stream size : 138 MiB (90%) Writing library : x264 core 114 r1913 5fd3dce Encoding settings : cabac=1 / ref=3 / deblock=1:0:0 / analyse=0x3:0x113 / me=hex / subme=7 / psy=1 / psy_rd=1.00:0.00 / mixed_ref=1 / me_range=16 / chroma_me=1 / trellis=1 / 8x8dct=1 / cqm=0 / deadzone=21,11 / fast_pskip=1 / chroma_qp_offset=-2 / threads=3 / sliced_threads=0 / nr=0 / decimate=1 / interlaced=0 / constrained_intra=0 / bframes=3 / b_pyramid=2 / b_adapt=1 / b_bias=0 / direct=1 / weightb=1 / open_gop=0 / weightp=2 / keyint=250 / keyint_min=25 / scenecut=40 / intra_refresh=0 / rc_lookahead=40 / rc=2pass / mbtree=1 / bitrate=4499 / ratetol=1.0 / qcomp=0.60 / qpmin=0 / qpmax=69 / qpstep=4 / cplxblur=20.0 / qblur=0.5 / ip_ratio=1.40 / aq=1:1.00 Audio ID : 2 Format : AC-3 Format/Info : Audio Coding 3 Mode extension : CM (complete main) Codec ID : A_AC3 Duration : 4mn 25s Bit rate mode : Constant Bit rate : 384 Kbps Channel(s) : 6 channels Channel positions : Front: L C R, Side: L R, LFE Sampling rate : 48.0 KHz Bit depth : 16 bits Compression mode : Lossy Delay relative to video : 31s 541ms Stream size : 12.1 MiB (8%) Title : Namkent@HDvietnam.com | Lee Seung Chul - No One Else (MoreThanBlueOST) Language : English
    Link tải phim
    Nhấn nút Cảm ơn (dưới chân bài) để thấy link!

    P/s: Mọi người ai có phim này thì share mình với nhé, thấy trên mạng toàn dvdrip :(
    Bonus thêm cái audio :) không chèn BBCODE được nên xem bằng liên kết vậy

    No One Else - Lee Seung Chul | Tải, lyrics, nhạc chờ bài hát


    Pass: namkent
     
    Chỉnh sửa cuối: 26/5/12
  2. hiepkmai

    hiepkmai Well-Known Member

    Tham gia ngày:
    3/6/09
    Bài viết:
    1,968
    Đã được cảm ơn:
    480
    Ðề: [MV] Lee Seung Chul - No One Else (More Than Blue OST) [720p.x264.ac3]

    Không nhúng được à?

    Bài này hôm nọ nghe ở nhà kon bạn thấy hay hay mà quên ko hỏi tên, nay mới biết. Thank :D
     
  3. tekachi1401

    tekachi1401 New Member

    Tham gia ngày:
    3/5/10
    Bài viết:
    1
    Đã được cảm ơn:
    0
    Ðề: [MV] Lee Seung Chul - No One Else (More Than Blue OST) [720p.x264.ac3]

    Thank .............
     
  4. linhhero

    linhhero New Member

    Tham gia ngày:
    26/3/09
    Bài viết:
    260
    Đã được cảm ơn:
    4
    Nghề nghiệp:
    Student
    Ðề: [MV] Lee Seung Chul - No One Else (More Than Blue OST) [720p.x264.ac3]

    pass là j thế bạn
     
  5. namkent

    namkent Well-Known Member

    Tham gia ngày:
    31/5/09
    Bài viết:
    1,280
    Đã được cảm ơn:
    374
    Nghề nghiệp:
    Sinh viên
    Ðề: [MV] Lee Seung Chul - No One Else (More Than Blue OST) [720p.x264.ac3]

    pass là namkent :)
     
  6. onggiacobapls

    onggiacobapls New Member

    Tham gia ngày:
    3/3/10
    Bài viết:
    612
    Đã được cảm ơn:
    100
    Ðề: [MV] Lee Seung Chul - No One Else (More Than Blue OST) [720p.x264.ac3]

    8-> bác Nam có MV red bean 1 trong film Phia đông vườn địa đàng ko bác.e kết bài đó quá
     
  7. tuoiphale

    tuoiphale New Member

    Tham gia ngày:
    2/12/09
    Bài viết:
    51
    Đã được cảm ơn:
    1
    Ðề: [MV] Lee Seung Chul - No One Else (More Than Blue OST) [720p.x264.ac3]

    Lee Seung Chul hát thì quá hay rồi không phải bàn nũa. Bạn có clip nào nữa up lên đi. Thanks nhé!
     
  8. huy254

    huy254 Member

    Tham gia ngày:
    17/4/10
    Bài viết:
    41
    Đã được cảm ơn:
    1
    Ðề: [MV] Lee Seung Chul - No One Else (More Than Blue OST) [720p.x264.ac3]

    Thank .............
     
  9. quytinhyeu

    quytinhyeu New Member

    Tham gia ngày:
    18/1/10
    Bài viết:
    71
    Đã được cảm ơn:
    10
    Ðề: [MV] Lee Seung Chul - No One Else (More Than Blue OST) [720p.x264.ac3]

    Thanks................................................... :D
     
    Administrator cảm ơn bài này.
  10. Thế Toàn

    Thế Toàn Member

    Tham gia ngày:
    20/5/10
    Bài viết:
    181
    Đã được cảm ơn:
    18
    19-11-2019 link vẫn sồng
     

Chia sẻ trang này