[MULTI] NatGeo HD Wild Russia S02 Earth's Last Great Wilderness 1080i HDTV x264 AC3 EngSub

Thảo luận trong 'Phim tài liệu - Documentaries' bắt đầu bởi iscol, 2/1/19.

  1. iscol

    iscol Well-Known Member

    Tham gia ngày:
    1/9/09
    Bài viết:
    4,551
    Đã được cảm ơn:
    9,773
    Giới tính:
    Nam
    Nghề nghiệp:
    Computer
    Nơi ở:
    Việt Nam
    [​IMG]
    NatGeo HD Wild Russia S02 Earth's Last Great Wilderness 1080i HDTV x264 AC3 EngSub

    Wild Russia is a landmark High Definition series charting a journey across this vast land that stretches from Europe to the Pacific Ocean. Covering 11 time zones, this huge country contains a wealth of unspoilt natural wildernesses - beyond the huge cities of Moscow and St. Petersburg, a primal world with rough mountain summits, wild rivers and an unmatched flora and fauna reveals itself.
    File Info

    Mã:

    
    	

    General Unique ID : 252762527871926591479503502413837263190 (0xBE284AC8B01FF7F8F827BA3DB5CE6156) Complete name : Wild Russia - Earth's Last Great Wilderness E01 Kamchatka Ring of Fire.mkv Format : Matroska Format version : Version 4 File size : 2.86 GiB Duration : 43 min 59 s Overall bit rate : 9 317 kb/s Encoded date : UTC 2019-01-01 05:54:48 Writing application : mkvmerge v29.0.0 ('Like It Or Not') 32-bit Writing library : libebml v1.3.6 + libmatroska v1.4.9 Video ID : 1 Format : AVC Format/Info : Advanced Video Codec Format profile : Main@L4 Format settings : CABAC / 3 Ref Frames Format settings, CABAC : Yes Format settings, ReFrames : 3 frames Codec ID : V_MPEG4/ISO/AVC Duration : 43 min 58 s Bit rate : 8 994 kb/s Width : 1 920 pixels Height : 1 080 pixels Display aspect ratio : 16:9 Frame rate mode : Variable Frame rate : 50.000 FPS Original frame rate : 25.000 FPS Color space : YUV Chroma subsampling : 4:2:0 Bit depth : 8 bits Scan type : Interlaced Scan type, store method : Separated fields Scan order : Top Field First Bits/(Pixel*Frame) : 0.087 Stream size : 2.76 GiB (97%) Default : Yes Forced : No Color range : Limited Color primaries : BT.709 Transfer characteristics : BT.709 Matrix coefficients : BT.709 Audio ID : 2 Format : AC-3 Format/Info : Audio Coding 3 Commercial name : Dolby Digital Codec ID : A_AC3 Duration : 43 min 59 s Bit rate mode : Constant Bit rate : 320 kb/s Channel(s) : 6 channels Channel layout : L R C LFE Ls Rs Sampling rate : 48.0 kHz Frame rate : 31.250 FPS (1536 SPF) Bit depth : 16 bits Compression mode : Lossy Stream size : 101 MiB (3%) Language : English Service kind : Complete Main Default : Yes Forced : No Text ID : 3 Format : UTF-8 Codec ID : S_TEXT/UTF8 Codec ID/Info : UTF-8 Plain Text Duration : 43 min 54 s Bit rate : 52 b/s Count of elements : 551 Stream size : 17.0 KiB (0%) Language : English Default : Yes Forced : No
     
    Chỉnh sửa cuối: 19/1/19
  2. iscol

    iscol Well-Known Member

    Tham gia ngày:
    1/9/09
    Bài viết:
    4,551
    Đã được cảm ơn:
    9,773
    Giới tính:
    Nam
    Nghề nghiệp:
    Computer
    Nơi ở:
    Việt Nam
    Cập nhật tập 2
     
  3. phan phong tan

    phan phong tan Well-Known Member

    Tham gia ngày:
    20/5/11
    Bài viết:
    779
    Đã được cảm ơn:
    518
    Giới tính:
    Nam
    Nghề nghiệp:
    Chuyên viên kinh tế
    Nơi ở:
    Việt Nam
    Cám ơn iscol rất nhiều nhé. Thế là đủ bộ rồi, mong chờ anh hoang_thuy rảnh rỗi thời gian làm phụ đề giúp. Chúc tất cả ACE buổi sáng đầu tuần vui vẻ và thành công trong mọi việc.
     

Chia sẻ trang này