[MULTI] National Geographic Inside North Korea's Dynasty [2018] Season 01 HDTV 1080i x264 AC3 EngSub

Thảo luận trong 'Phim tài liệu - Documentaries' bắt đầu bởi iscol, 18/1/19.

  1. iscol

    iscol Moderator

    Tham gia ngày:
    1/9/09
    Bài viết:
    4,551
    Đã được cảm ơn:
    9,616
    Điểm thành tích:
    113
    Giới tính:
    Nam
    Nghề nghiệp:
    Computer
    Nơi ở:
    Việt Nam
    Tiền:
    1,974 CR


    Synopsis

    With North Korea's relations with the rest of the world at a new and unpredictable inflection point, National Geographic Documentary Films presents INSIDE NORTH KOREA'S DYNASTY, a groundbreaking four-episode documentary series that examines the extraordinary history of the world's only communist dynasty, three generations in the making. A year in production, INSIDE NORTH KOREA'S DYNASTY is the ultimate story of a family's power, and the relationship among a father, a son and a grandson. The series provides a look at the Kim dynasty more complex and comprehensive than ever attempted before, revealing the workings behind the formidable family dynamics at the heart of an extraordinary country. Viewers will be immersed in the family's dark and surreal story, bringing a fresh perspective on a nation ruled for over seven decades by one dynasty. Understand the family, and you understand how this country works.

    Season 1 Episodes

    E01 Kingdom of The Kims
    E02 The Son of God
    E03 Nuclear Family
    E04 Rocket Man

    File Info:

    Mã:
    General
    Unique ID  : 9637629076110188465673609316098840794 (0x74023CCC12FB224C7776DEE7B9B18DA)
    Complete name  : National Geographic Inside North Korea's Dynasty\Inside North Korea's Dynasty S01E01 Kingdom of the Kims.mkv
    
    
    Format  : Matroska
    Format version  : Version 4
    File size  : 2.77 GiB
    Duration  : 47 min 2 s
    Overall bit rate  : 8 441 kb/s
    Movie name  : Королевство Кимов (Kingdom of the Kims)
    Encoded date  : UTC 2019-01-14 07:47:34
    Writing application  : mkvmerge v30.1.0 ('Forever And More') 32-bit
    Writing library  : libebml v1.3.6 + libmatroska v1.4.9
    Cover  : Yes
    Attachments  : Cover.jpg
    Video
    ID  : 1
    Format  : AVC
    Format/Info  : Advanced Video Codec
    Format profile  : High@L4.1
    Format settings  : CABAC / 4 Ref Frames
    Format settings, CABAC  : Yes
    Format settings, ReFrames  : 4 frames
    Codec ID  : V_MPEG4/ISO/AVC
    Duration  : 47 min 2 s
    Bit rate  : 8 000 kb/s
    Width  : 1 920 pixels
    Height  : 1 080 pixels
    Display aspect ratio  : 16:9
    Frame rate mode  : Constant
    Frame rate  : 29.970 (30000/1001) FPS
    Color space  : YUV
    Chroma subsampling  : 4:2:0
    Bit depth  : 8 bits
    Scan type  : Progressive
    Bits/(Pixel*Frame)  : 0.129
    Stream size  : 2.63 GiB (95%)
    Writing library  : x264 core 148 r2705 3f5ed56
    Encoding settings  : cabac=1 / ref=4 / deblock=1:0:0 / analyse=0x3:0x133 / me=tesa / subme=11 / psy=1 / psy_rd=1.00:0.00 / mixed_ref=1 / me_range=64 / chroma_me=1 / trellis=2 / 8x8dct=1 / cqm=0 / deadzone=21,11 / fast_pskip=0 / chroma_qp_offset=-2 / threads=18 / lookahead_threads=4 / sliced_threads=0 / nr=0 / decimate=1 / interlaced=0 / bluray_compat=0 / constrained_intra=0 / bframes=16 / b_pyramid=2 / b_adapt=2 / b_bias=0 / direct=3 / weightb=1 / open_gop=0 / weightp=2 / keyint=250 / keyint_min=25 / scenecut=40 / intra_refresh=0 / rc_lookahead=60 / rc=2pass / mbtree=1 / bitrate=8000 / ratetol=1.0 / qcomp=0.60 / qpmin=0 / qpmax=69 / qpstep=4 / cplxblur=20.0 / qblur=0.5 / vbv_maxrate=62500 / vbv_bufsize=78125 / nal_hrd=none / filler=0 / ip_ratio=1.40 / aq=1:1.00
    Default  : Yes
    Forced  : No
    Color range  : Limited
    Matrix coefficients  : BT.709
    Audio
    ID  : 2
    Format  : AC-3
    Format/Info  : Audio Coding 3
    Commercial name  : Dolby Digital
    Codec ID  : A_AC3
    Duration  : 47 min 2 s
    Bit rate mode  : Constant
    Bit rate  : 448 kb/s
    Channel(s)  : 6 channels
    Channel layout  : L R C LFE Ls Rs
    Sampling rate  : 48.0 kHz
    Frame rate  : 31.250 FPS (1536 SPF)
    Bit depth  : 16 bits
    Compression mode  : Lossy
    Stream size  : 151 MiB (5%)
    Language  : English
    Service kind  : Complete Main
    Default  : Yes
    Forced  : No
    Text
    ID  : 3
    Format  : UTF-8
    Codec ID  : S_TEXT/UTF8
    Codec ID/Info  : UTF-8 Plain Text
    Duration  : 46 min 27 s
    Bit rate  : 63 b/s
    Count of elements  : 399
    Stream size  : 21.7 KiB (0%)
    Language  : English
    Default  : Yes
    Forced  : No
    
    Screenshot

    [​IMG]

     
    Chỉnh sửa cuối: 28/1/19
    #1 +2 CR
  2. hoang_thuy

    hoang_thuy Huyền Thoại

    Tham gia ngày:
    10/6/09
    Bài viết:
    2,088
    Đã được cảm ơn:
    4,862
    Điểm thành tích:
    113
    Tiền:
    2,200 CR
    Sao mới up lên mà thư mục trống rồi iscol ơi!
     
    raumuongque and iscol like this.
  3. zenkikensi

    zenkikensi Active Member

    Tham gia ngày:
    22/8/15
    Bài viết:
    108
    Đã được cảm ơn:
    58
    Điểm thành tích:
    28
    Giới tính:
    Nam
    Tiền:
    225 CR
    chắc bị sao đó ụp lỗi rồi ạ :3
     
  4. tlamhp

    tlamhp Well-Known Member

    Tham gia ngày:
    23/7/12
    Bài viết:
    658
    Đã được cảm ơn:
    369
    Điểm thành tích:
    63
    Giới tính:
    Nam
    Nghề nghiệp:
    Housekeeper
    Nơi ở:
    Oakland CA USA
    Tiền:
    1,262 CR
    Không có E03 rồi. Kiểm tra lại giùm đi chủ thớt ơi.
     
    #4 +1 CR
  5. quanphamkt

    quanphamkt Active Member

    Tham gia ngày:
    9/7/18
    Bài viết:
    69
    Đã được cảm ơn:
    207
    Điểm thành tích:
    33
    Giới tính:
    Nam
    Tiền:
    82 CR
    Chỉnh sửa cuối: 23/1/19
  6. iscol

    iscol Moderator

    Tham gia ngày:
    1/9/09
    Bài viết:
    4,551
    Đã được cảm ơn:
    9,616
    Điểm thành tích:
    113
    Giới tính:
    Nam
    Nghề nghiệp:
    Computer
    Nơi ở:
    Việt Nam
    Tiền:
    1,974 CR
    Đã cập nhật tập 3
     
    #6 +1 CR
  7. thm2000

    thm2000 New Member

    Tham gia ngày:
    23/1/19
    Bài viết:
    18
    Đã được cảm ơn:
    22
    Điểm thành tích:
    3
    Giới tính:
    Nam
    Tiền:
    25 CR
    Thanks!
     
    #7 +1 CR
  8. khanh911

    khanh911 Member

    Tham gia ngày:
    15/2/09
    Bài viết:
    137
    Đã được cảm ơn:
    12
    Điểm thành tích:
    18
    Tiền:
    444 CR
    Hình như mới có sub 2 tập đúng không bác ?
     
  9. quanphamkt

    quanphamkt Active Member

    Tham gia ngày:
    9/7/18
    Bài viết:
    69
    Đã được cảm ơn:
    207
    Điểm thành tích:
    33
    Giới tính:
    Nam
    Tiền:
    82 CR
    dịch đủ 4 tâp mà
     
    Chỉnh sửa cuối: 25/1/19
    zenkikensi cảm ơn bài này.
  10. vientan

    vientan Well-Known Member

    Tham gia ngày:
    10/2/10
    Bài viết:
    193
    Đã được cảm ơn:
    944
    Điểm thành tích:
    93
    Tiền:
    839 CR
    Mới coi hết hồi tối,công nhận hay tư liệu quý hiếm.Thank Bác chủ với Bác dịch sub!
     
    Hòa Thượng cảm ơn bài này.

Chia sẻ trang này