[MULTI] National Geographic Wild Dead by Dawn S01 [2019] 1080p HDTV x264 AC3 EngSub

Thảo luận trong 'Phim tài liệu - Documentaries' bắt đầu bởi iscol, 18/1/19.

  1. iscol

    iscol Moderator

    Tham gia ngày:
    1/9/09
    Bài viết:
    4,551
    Đã được cảm ơn:
    9,616
    Điểm thành tích:
    113
    Giới tính:
    Nam
    Nghề nghiệp:
    Computer
    Nơi ở:
    Việt Nam
    Tiền:
    1,974 CR
    [​IMG]

    National Geographic Wild Dead by Dawn S01 [2019] 1080p HDTV x264 AC3 EngSub
    https://www.nationalgeographic.com/tv/dead-by-dawn/

    Dead by Dawn delivers captivating and excellent visuals and storytelling while audaciously leaning into classic horror folly and memorable, distinctive soundtracks alongside suspenseful nature stories that begin just before sunset and end just after sunrise. Each episode features wildlife in a different country, from Costa Rica to Indonesia to the swamps of the USA. Once the sun goes down, creatures of the night battle for survival. It’s a countdown until dawn, and only the strongest and luckiest will live to see the sunrise. Warning: Be prepared to scream!

    “Dead by Dawn is a great example of how Nat Geo WILD continues to find new ways to showcase the real, incredible drama of the natural world, and we could not be more thrilled to collaborate with the creative minds at Skybound Entertainment and Love Productions on this exciting, edge-of-your-seat series,” said Janet Han Vissering, senior vice president of development and production at Nat Geo WILD. “Nature can often be more frightening than fiction, and I think viewers will find that this genre mashup of horror with natural history provides a refreshing and entertaining new look at the realities of life in the animal kingdom.”

    S1 E1 The Hills Have Eyes

    In the dark of night in the Arabian Desert, killers conceal themselves in plain sight. In the endless sea of sand, death comes from every direction.

    S1 E2 Night of the Living Dead
    The jungles of Indonesia are a world of beauty and mystery. As night approaches, strange creatures emerge in the dark sky.

    File Info:

    Mã:
    Source: Dead by Dawn 1080p AMZN WEBRip DDP5 1 x264 TrollHD
    General
    Unique ID  : 108729225096395564742594140012348865737 (0x51CC7CAEEFB48345C771F271CE3E7CC9)
    Complete name  : National Geographic Wild Dead by Dawn\Dead by Dawn S01E01 Night of the Living Dead.mkv
    Format  : Matroska
    Format version  : Version 4
    
    
    File size  : 2.98 GiB
    Duration  : 44 min 11 s
    Overall bit rate  : 9 669 kb/s
    Encoded date  : UTC 2019-01-17 16:22:20
    Writing application  : mkvmerge v30.1.0 ('Forever And More') 32-bit
    Writing library  : libebml v1.3.6 + libmatroska v1.4.9
    Video
    ID  : 1
    Format  : AVC
    Format/Info  : Advanced Video Codec
    Format profile  : High@L4
    Format settings  : CABAC / 4 Ref Frames
    Format settings, CABAC  : Yes
    Format settings, ReFrames  : 4 frames
    Codec ID  : V_MPEG4/ISO/AVC
    Duration  : 44 min 11 s
    Bit rate  : 9 027 kb/s
    Width  : 1 920 pixels
    Height  : 1 080 pixels
    Display aspect ratio  : 16:9
    Frame rate mode  : Constant
    Frame rate  : 23.976 (24000/1001) FPS
    Color space  : YUV
    Chroma subsampling  : 4:2:0
    Bit depth  : 8 bits
    Scan type  : Progressive
    Bits/(Pixel*Frame)  : 0.182
    Stream size  : 2.79 GiB (93%)
    Default  : Yes
    Forced  : No
    Color range  : Limited
    Color primaries  : BT.709
    Transfer characteristics  : BT.709
    Matrix coefficients  : BT.709
    Audio
    ID  : 2
    Format  : E-AC-3
    Format/Info  : Enhanced AC-3
    Commercial name  : Dolby Digital Plus
    Codec ID  : A_EAC3
    Duration  : 44 min 11 s
    Bit rate mode  : Constant
    Bit rate  : 640 kb/s
    Channel(s)  : 6 channels
    Channel layout  : L R C LFE Ls Rs
    Sampling rate  : 48.0 kHz
    Frame rate  : 31.250 FPS (1536 SPF)
    Compression mode  : Lossy
    Stream size  : 202 MiB (7%)
    Language  : English
    Service kind  : Complete Main
    Default  : Yes
    Forced  : No
    Text #1
    ID  : 3
    Format  : UTF-8
    Codec ID  : S_TEXT/UTF8
    Codec ID/Info  : UTF-8 Plain Text
    Duration  : 44 min 7 s
    Bit rate  : 47 b/s
    Count of elements  : 550
    Stream size  : 15.4 KiB (0%)
    Language  : English
    Default  : Yes
    Forced  : No
    Text #2
    ID  : 4
    Format  : UTF-8
    Codec ID  : S_TEXT/UTF8
    Codec ID/Info  : UTF-8 Plain Text
    Duration  : 44 min 7 s
    Bit rate  : 34 b/s
    Count of elements  : 314
    Stream size  : 11.1 KiB (0%)
    Language  : English
    Default  : No
    Forced  : No
    Text #3
    ID  : 5
    Format  : UTF-8
    Codec ID  : S_TEXT/UTF8
    Codec ID/Info  : UTF-8 Plain Text
    Duration  : 44 min 7 s
    Bit rate  : 37 b/s
    Count of elements  : 550
    Stream size  : 12.3 KiB (0%)
    Title  : SDH
    Language  : English
    Default  : No
    Forced  : No
    
    Screenshot
    [​IMG]


     
    #1 +2 CR
  2. zenkikensi

    zenkikensi Active Member

    Tham gia ngày:
    22/8/15
    Bài viết:
    108
    Đã được cảm ơn:
    58
    Điểm thành tích:
    28
    Giới tính:
    Nam
    Tiền:
    225 CR
    thks bác, tựa vs dẫn nghe như phim chiếu rạp ý :))
     
  3. iscol

    iscol Moderator

    Tham gia ngày:
    1/9/09
    Bài viết:
    4,551
    Đã được cảm ơn:
    9,616
    Điểm thành tích:
    113
    Giới tính:
    Nam
    Nghề nghiệp:
    Computer
    Nơi ở:
    Việt Nam
    Tiền:
    1,974 CR
    Cập nhật tập 03 A Quiet Place [720p]
     
    #3 +1 CR
    puppy1979, TSH6506, hoatieu2 and 2 others like this.
  4. iscol

    iscol Moderator

    Tham gia ngày:
    1/9/09
    Bài viết:
    4,551
    Đã được cảm ơn:
    9,616
    Điểm thành tích:
    113
    Giới tính:
    Nam
    Nghề nghiệp:
    Computer
    Nơi ở:
    Việt Nam
    Tiền:
    1,974 CR
    Cập nhật tập 03 (1080p) tập 04 (720p)
     
    #4 +1 CR

Chia sẻ trang này