[MULTI] [Netflix 2019] Daybreak S01 NF 1080p WEB DL DDP 5.1 H265 ~ Rạng đông (Full Vietsub)

Thảo luận trong 'Phim bộ - Series' bắt đầu bởi adm820, 24/10/19.

Tags
  1. adm820

    adm820 Moderator Thành viên BQT

    Tham gia ngày:
    1/12/10
    Bài viết:
    6,151
    Đã được cảm ơn:
    137,564
    Giới tính:
    Nam
    [​IMG]

    upload_2019-10-24_20-39-38.png
    Mã:
    Format                      : Matroska
    
    
    	

    Format version : Version 4

    File size : 2.02 GiB Duration : 45 min 43 s Overall bit rate : 6 338 kb/s Encoded date : UTC 2019-10-24 13:04:49 Writing application : mkvmerge v38.0.0 ('The Silent Type') 64-bit Writing library : libebml v1.3.9 + libmatroska v1.5.2 Video ID : 1 Format : HEVC Format/Info : High Efficiency Video Coding Format profile : Main 10@L4@Main HDR format : SMPTE ST 2086, HDR10 compatible Codec ID : V_MPEGH/ISO/HEVC Duration : 45 min 0 s Bit rate : 5 657 kb/s Width : 1 920 pixels Height : 1 080 pixels Display aspect ratio : 16:9 Frame rate mode : Constant Frame rate : 23.976 (24000/1001) FPS Color space : YUV Chroma subsampling : 4:2:0 (Type 2) Bit depth : 10 bits Bits/(Pixel*Frame) : 0.114 Stream size : 1.78 GiB (88%) Default : Yes Forced : No Color range : Limited Color primaries : BT.2020 Transfer characteristics : PQ Matrix coefficients : BT.2020 non-constant Mastering display color pri : Display P3 Mastering display luminance : min: 0.0001 cd/m2, max: 1000 cd/m2 Maximum Content Light Level : 738 cd/m2 Maximum Frame-Average Light : 115 cd/m2 Audio ID : 3 Format : E-AC-3 JOC Format/Info : Enhanced AC-3 with Joint Object Coding Commercial name : Dolby Digital Plus with Dolby Atmos Codec ID : A_EAC3 Duration : 45 min 43 s Bit rate mode : Constant Bit rate : 768 kb/s Channel(s) : 6 channels Channel layout : L R C LFE Ls Rs Sampling rate : 48.0 kHz Frame rate : 31.250 FPS (1536 SPF) Compression mode : Lossy Stream size : 251 MiB (12%) Title : English Language : English Service kind : Complete Main Default : Yes Forced : No Complexity index : 16 Number of dynamic objects : 15 Bed channel count : 1 channel Bed channel configuration : LFE Text ID : 2 Format : UTF-8 Codec ID : S_TEXT/UTF8 Codec ID/Info : UTF-8 Plain Text Duration : 44 min 41 s Bit rate : 88 b/s Count of elements : 615 Stream size : 29.0 KiB (0%) Title : Vietnamese [Full] Language : Vietnamese Default : Yes Forced : No [/LEFT] [CENTER]
    [​IMG]

    [​IMG]

    [​IMG]

    [​IMG]

    [​IMG][/CENTER]​
     
  2. adm820

    adm820 Moderator Thành viên BQT

    Tham gia ngày:
    1/12/10
    Bài viết:
    6,151
    Đã được cảm ơn:
    137,564
    Giới tính:
    Nam
    Bộ phim tải về từ Netflix , có tất cả 10 tập

    Link tải bản HEVC HDR

    Nhấn nút Cảm ơn (dưới chân bài) để thấy link!
     
    Chỉnh sửa cuối: 24/10/19

Chia sẻ trang này