[MULTI] [Netflix 2019] Lost in Space S01-S02 1080p NF WEB-DL DDP5.1 ~ Lạc ngoài không gian (Full Lồng Tiếng

Thảo luận trong 'Phim bộ - Series' bắt đầu bởi adm820, 24/12/19.

Tags
  1. adm820

    adm820 Moderator Thành viên BQT

    Tham gia ngày:
    1/12/10
    Bài viết:
    8,028
    Đã được cảm ơn:
    188,795
    Giới tính:
    Nam
    [​IMG]

    upload_2019-12-24_18-30-38.png



    Mã:
    Format                      : Matroska
    Format version              : Version 4
    
    
    	

    File size : 1.99 GiB

    Duration : 39 min 59 s Overall bit rate mode : Variable Overall bit rate : 7 116 kb/s Encoded date : UTC 2019-12-24 11:24:23 Writing application : mkvmerge v41.0.0 ('Smarra') 64-bit Writing library : libebml v1.3.9 + libmatroska v1.5.2 Video ID : 1 Format : AVC Format/Info : Advanced Video Codec Format profile : Main@L4 Format settings : CABAC / 3 Ref Frames Format settings, CABAC : Yes Format settings, Reference : 3 frames Codec ID : V_MPEG4/ISO/AVC Duration : 39 min 58 s Bit rate mode : Variable Bit rate : 4 810 kb/s Nominal bit rate : 5 110 kb/s Maximum bit rate : 7 665 kb/s Width : 1 920 pixels Height : 1 080 pixels Display aspect ratio : 16:9 Frame rate mode : Constant Frame rate : 23.976 (24000/1001) FPS Color space : YUV Chroma subsampling : 4:2:0 Bit depth : 8 bits Scan type : Progressive Bits/(Pixel*Frame) : 0.097 Stream size : 1.34 GiB (68%) Writing library : x264 core 148 r2715 7e75228 Encoding settings : cabac=1 / ref=3 / deblock=1:0:0 / analyse=0x1:0x111 / me=umh / subme=10 / psy=1 / psy_rd=1.00:0.00 / mixed_ref=1 / me_range=24 / chroma_me=1 / trellis=2 / 8x8dct=0 / cqm=0 / deadzone=21,11 / fast_pskip=1 / chroma_qp_offset=-2 / threads=8 / lookahead_threads=1 / sliced_threads=0 / nr=0 / decimate=1 / interlaced=0 / bluray_compat=0 / stitchable=1 / constrained_intra=0 / bframes=2 / b_pyramid=0 / b_adapt=2 / b_bias=0 / direct=3 / weightb=1 / open_gop=0 / weightp=2 / keyint=250 / keyint_min=23 / scenecut=0 / intra_refresh=0 / rc_lookahead=48 / rc=2pass / mbtree=1 / bitrate=5110 / ratetol=1.0 / qcomp=0.50 / qpmin=6 / qpmax=51 / qpstep=4 / cplxblur=20.0 / qblur=0.5 / vbv_maxrate=7665 / vbv_bufsize=10220 / nal_hrd=vbr / filler=0 / ip_ratio=1.40 / aq=1:1.00 Default : Yes Forced : No Audio #1 ID : 2 Format : E-AC-3 JOC Format/Info : Enhanced AC-3 with Joint Object Coding Commercial name : Dolby Digital Plus with Dolby Atmos Codec ID : A_EAC3 Duration : 39 min 58 s Bit rate mode : Constant Bit rate : 768 kb/s Channel(s) : 6 channels Channel layout : L R C LFE Ls Rs Sampling rate : 48.0 kHz Frame rate : 31.250 FPS (1536 SPF) Compression mode : Lossy Stream size : 220 MiB (11%) Title : English [Original] Language : English Service kind : Complete Main Default : No Forced : No Complexity index : 16 Number of dynamic objects : 15 Bed channel count : 1 channel Bed channel configuration : LFE Audio #2 ID : 3 Format : E-AC-3 Format/Info : Enhanced AC-3 Commercial name : Dolby Digital Plus Codec ID : A_EAC3 Duration : 39 min 59 s Bit rate mode : Constant Bit rate : 640 kb/s Channel(s) : 6 channels Channel layout : L R C LFE Ls Rs Sampling rate : 48.0 kHz Frame rate : 31.250 FPS (1536 SPF) Compression mode : Lossy Stream size : 183 MiB (9%) Title : English [Original] Language : English Service kind : Complete Main Default : No Forced : No Audio #3 ID : 4 Format : E-AC-3 Format/Info : Enhanced AC-3 Commercial name : Dolby Digital Plus Codec ID : A_EAC3 Duration : 39 min 59 s Bit rate mode : Constant Bit rate : 128 kb/s Channel(s) : 2 channels Channel layout : L R Sampling rate : 48.0 kHz Frame rate : 31.250 FPS (1536 SPF) Compression mode : Lossy Stream size : 36.6 MiB (2%) Title : English [Original] Language : English Service kind : Complete Main Default : No Forced : No Audio #4 ID : 5 Format : E-AC-3 Format/Info : Enhanced AC-3 Commercial name : Dolby Digital Plus Codec ID : A_EAC3 Duration : 39 min 59 s Bit rate mode : Constant Bit rate : 640 kb/s Channel(s) : 6 channels Channel layout : L R C LFE Ls Rs Sampling rate : 48.0 kHz Frame rate : 31.250 FPS (1536 SPF) Compression mode : Lossy Stream size : 183 MiB (9%) Title : Vietnamese Language : Vietnamese Service kind : Complete Main Default : Yes Forced : No Audio #5 ID : 6 Format : E-AC-3 Format/Info : Enhanced AC-3 Commercial name : Dolby Digital Plus Codec ID : A_EAC3 Duration : 39 min 59 s Bit rate mode : Constant Bit rate : 128 kb/s Channel(s) : 2 channels Channel layout : L R Sampling rate : 48.0 kHz Frame rate : 31.250 FPS (1536 SPF) Compression mode : Lossy Stream size : 36.6 MiB (2%) Title : Vietnamese Language : Vietnamese Service kind : Complete Main Default : No Forced : No Text ID : 7 Format : UTF-8 Codec ID : S_TEXT/UTF8 Codec ID/Info : UTF-8 Plain Text Duration : 38 min 40 s Bit rate : 96 b/s Count of elements : 644 Stream size : 27.3 KiB (0%) Title : Vietnamese Language : Vietnamese Default : Yes Forced : No

    [​IMG] [​IMG] [​IMG] [​IMG]


    Bộ phim được tải về từ Netfflix có audio lồng tiếng + phụ đề Việt

    Link tải

    Nhấn nút Cảm ơn (dưới chân bài) để thấy link!


    Các phim khác từ Netflix

    http://www.hdvietnam.com/tags/adm820-nf/
     
  2. tiensh98

    tiensh98 Active Member

    Tham gia ngày:
    22/10/17
    Bài viết:
    649
    Đã được cảm ơn:
    243
    Giới tính:
    Nam
    chả hiểu sao Netflix thuê đc mấy ông dịch phụ đề chán vãi :3
     
  3. apolo4002

    apolo4002 Well-Known Member

    Tham gia ngày:
    14/1/18
    Bài viết:
    184
    Đã được cảm ơn:
    556
    Giới tính:
    Nữ
    Thanks
     
  4. adm820

    adm820 Moderator Thành viên BQT

    Tham gia ngày:
    1/12/10
    Bài viết:
    8,028
    Đã được cảm ơn:
    188,795
    Giới tính:
    Nam
    chất lượng dịch sao vậy bạn
     
  5. kennethnguyen

    kennethnguyen Member

    Tham gia ngày:
    30/7/10
    Bài viết:
    193
    Đã được cảm ơn:
    14
    Cám ơn bác. Mình có phần 1 Lồng tiếng luôn ko bác? EM cám ơn bác!
     
  6. adm820

    adm820 Moderator Thành viên BQT

    Tham gia ngày:
    1/12/10
    Bài viết:
    8,028
    Đã được cảm ơn:
    188,795
    Giới tính:
    Nam
    hình như trong forum có ng up rồi đó
     
  7. 0011223344

    0011223344 Active Member

    Tham gia ngày:
    4/5/10
    Bài viết:
    316
    Đã được cảm ơn:
    96
    phaàn 1 link die roài. hóng bác reup
     
  8. adm820

    adm820 Moderator Thành viên BQT

    Tham gia ngày:
    1/12/10
    Bài viết:
    8,028
    Đã được cảm ơn:
    188,795
    Giới tính:
    Nam

    đang update thêm S01
     
    0011223344 cảm ơn bài này.
  9. 0011223344

    0011223344 Active Member

    Tham gia ngày:
    4/5/10
    Bài viết:
    316
    Đã được cảm ơn:
    96
    thank bạn
     
  10. 0011223344

    0011223344 Active Member

    Tham gia ngày:
    4/5/10
    Bài viết:
    316
    Đã được cảm ơn:
    96
    xin thêm link SS1 ạ.
     
  11. adm820

    adm820 Moderator Thành viên BQT

    Tham gia ngày:
    1/12/10
    Bài viết:
    8,028
    Đã được cảm ơn:
    188,795
    Giới tính:
    Nam
    Vẫn link cũ
     
  12. 0011223344

    0011223344 Active Member

    Tham gia ngày:
    4/5/10
    Bài viết:
    316
    Đã được cảm ơn:
    96
    Đã thấy link. Thanks bác
     
  13. tuan_tekken

    tuan_tekken Active Member

    Tham gia ngày:
    19/1/10
    Bài viết:
    139
    Đã được cảm ơn:
    165
    Netflix có nhiều phim lồng tiếng như vầy ko bác? Nghe sơ sơ thấy cũng ok đấy
    À, với e muốn tìm các phim bác đã up. Thấy signature của bác có link nhưng ko biết là đã đủ hết chưa
     

Chia sẻ trang này