[MULTI] [Netflix 2020] Hospital Playlist S01 1080p NF WEB-DL DDP 2.0 x264 ~ Những bác sỹ tài hoa Tập 3/12

Thảo luận trong 'Phim bộ - Series' bắt đầu bởi adm820, 26/3/20.

Tags
Trạng thái chủ đề:
Không mở trả lời sau này.
  1. adm820

    adm820 Moderator Thành viên BQT

    Tham gia ngày:
    1/12/10
    Bài viết:
    7,195
    Đã được cảm ơn:
    165,463
    Giới tính:
    Nam
    [​IMG]

    upload_2020-3-26_21-53-4.png

    Mã:
    General
    
    
    	

    Unique ID : 318439238035135926424618430980299912330 (0xEF912A9930471FE0A40DC46CD63F748A)

    Complete name : D:\Hospital.Playlist.S01E01.1080p.NF.WEB-DL.DDP.2.0.x264.mkv Format : Matroska Format version : Version 4 File size : 1.38 GiB Duration : 1 h 22 min Overall bit rate mode : Variable Overall bit rate : 2 386 kb/s Encoded date : UTC 2020-03-16 09:19:49 Writing application : mkvmerge v44.0.0 ('Domino') 64-bit Writing library : libebml v1.3.10 + libmatroska v1.5.2 Video ID : 1 Format : AVC Format/Info : Advanced Video Codec Format profile : Main@L4 Format settings : CABAC / 3 Ref Frames Format settings, CABAC : Yes Format settings, Reference fra : 3 frames Codec ID : V_MPEG4/ISO/AVC Duration : 1 h 22 min Bit rate mode : Variable Bit rate : 2 260 kb/s Maximum bit rate : 3 390 kb/s Width : 1 920 pixels Height : 1 080 pixels Display aspect ratio : 16:9 Frame rate mode : Constant Frame rate : 23.976 (24000/1001) FPS Color space : YUV Chroma subsampling : 4:2:0 Bit depth : 8 bits Scan type : Progressive Bits/(Pixel*Frame) : 0.045 Stream size : 1.30 GiB (94%) Writing library : x264 core 148 r2717 0d2410d Encoding settings : cabac=1 / ref=3 / deblock=1:0:0 / analyse=0x1:0x111 / me=umh / subme=10 / psy=1 / psy_rd=1.00:0.00 / mixed_ref=1 / me_range=24 / chroma_me=1 / trellis=2 / 8x8dct=0 / cqm=0 / deadzone=21,11 / fast_pskip=1 / chroma_qp_offset=-2 / threads=6 / lookahead_threads=1 / sliced_threads=0 / nr=0 / decimate=1 / interlaced=0 / bluray_compat=0 / stitchable=1 / constrained_intra=0 / bframes=2 / b_pyramid=0 / b_adapt=2 / b_bias=0 / direct=3 / weightb=1 / open_gop=0 / weightp=2 / keyint=250 / keyint_min=23 / scenecut=0 / intra_refresh=0 / rc_lookahead=48 / rc=2pass / mbtree=1 / bitrate=2260 / ratetol=1.0 / qcomp=0.50 / qpmin=6 / qpmax=51 / qpstep=4 / cplxblur=20.0 / qblur=0.5 / vbv_maxrate=3390 / vbv_bufsize=4520 / nal_hrd=vbr / filler=0 / ip_ratio=1.40 / aq=1:1.00 Default : Yes Forced : No Audio ID : 2 Format : E-AC-3 Format/Info : Enhanced AC-3 Commercial name : Dolby Digital Plus Codec ID : A_EAC3 Duration : 1 h 22 min Bit rate mode : Constant Bit rate : 128 kb/s Channel(s) : 2 channels Channel layout : L R Sampling rate : 48.0 kHz Frame rate : 31.250 FPS (1536 SPF) Compression mode : Lossy Stream size : 75.9 MiB (5%) Title : Korean Language : Korean Service kind : Complete Main Default : Yes Forced : No Text #1 ID : 3 Format : UTF-8 Codec ID : S_TEXT/UTF8 Codec ID/Info : UTF-8 Plain Text Duration : 1 h 22 min Bit rate : 64 b/s Count of elements : 1259 Stream size : 39.2 KiB (0%) Title : Brazilian Portuguese Language : Portuguese Default : No Forced : No Text #2 ID : 4 Format : UTF-8 Codec ID : S_TEXT/UTF8 Codec ID/Info : UTF-8 Plain Text Duration : 1 h 22 min Bit rate : 71 b/s Count of elements : 1241 Stream size : 43.1 KiB (0%) Title : English Language : English Default : Yes Forced : No Text #3 ID : 5 Format : UTF-8 Codec ID : S_TEXT/UTF8 Codec ID/Info : UTF-8 Plain Text Duration : 1 h 22 min Bit rate : 65 b/s Count of elements : 1264 Stream size : 39.9 KiB (0%) Title : Indonesian Language : Indonesian Default : No Forced : No Text #4 ID : 6 Format : UTF-8 Codec ID : S_TEXT/UTF8 Codec ID/Info : UTF-8 Plain Text Duration : 1 h 22 min Bit rate : 111 b/s Count of elements : 1572 Stream size : 67.6 KiB (0%) Title : Korean Language : Korean Default : No Forced : No Text #5 ID : 7 Format : UTF-8 Codec ID : S_TEXT/UTF8 Codec ID/Info : UTF-8 Plain Text Duration : 1 h 22 min Bit rate : 68 b/s Count of elements : 1274 Stream size : 41.6 KiB (0%) Title : Simplified Chinese Default : No Forced : No Text #6 ID : 8 Format : UTF-8 Codec ID : S_TEXT/UTF8 Codec ID/Info : UTF-8 Plain Text Duration : 1 h 22 min Bit rate : 68 b/s Count of elements : 1262 Stream size : 41.3 KiB (0%) Title : Spanish Language : Spanish Default : No Forced : No Text #7 ID : 9 Format : UTF-8 Codec ID : S_TEXT/UTF8 Codec ID/Info : UTF-8 Plain Text Duration : 1 h 22 min Bit rate : 168 b/s Count of elements : 1293 Stream size : 102 KiB (0%) Title : Thai Language : Thai Default : No Forced : No Text #8 ID : 10 Format : UTF-8 Codec ID : S_TEXT/UTF8 Codec ID/Info : UTF-8 Plain Text Duration : 1 h 22 min Bit rate : 70 b/s Count of elements : 1270 Stream size : 42.5 KiB (0%) Title : Traditional Chinese Default : No Forced : No Text #9 ID : 11 Format : UTF-8 Codec ID : S_TEXT/UTF8 Codec ID/Info : UTF-8 Plain Text Duration : 1 h 22 min Bit rate : 95 b/s Count of elements : 1273 Stream size : 57.9 KiB (0%) Title : Vietnamese Language : Vietnamese Default : No Forced : No

    [​IMG] [​IMG] [​IMG]


    Link tải
    Có sẵn phụ đề Việt
    Nhấn nút Cảm ơn (dưới chân bài) để thấy link!
    Nhấn nút Cảm ơn (dưới chân bài) để thấy link!






     
  2. adm820

    adm820 Moderator Thành viên BQT

    Tham gia ngày:
    1/12/10
    Bài viết:
    7,195
    Đã được cảm ơn:
    165,463
    Giới tính:
    Nam
    Trông Tập 3 phát sóng tối nay có 1 đoạn hát karaoke trên phim , và đây là vietsub của đoạn kara đó :
    ALOHA - COOL

    [​IMG] [​IMG] [​IMG] [​IMG] [​IMG] [​IMG] [​IMG] [​IMG] [​IMG] [​IMG] [​IMG] [​IMG] [​IMG] [​IMG] [​IMG] [​IMG] [​IMG] [​IMG] [​IMG] [​IMG] [​IMG] [​IMG] [​IMG] [​IMG] [​IMG] [​IMG] [​IMG] [​IMG]
     
  3. DoanHung

    DoanHung Member

    Tham gia ngày:
    11/10/09
    Bài viết:
    37
    Đã được cảm ơn:
    14
  4. adm820

    adm820 Moderator Thành viên BQT

    Tham gia ngày:
    1/12/10
    Bài viết:
    7,195
    Đã được cảm ơn:
    165,463
    Giới tính:
    Nam
    Tất nhiên phải tìm cách khôi phục chứ
     
    Tiểu Hoắc cảm ơn bài này.
  5. MBG

    MBG Member

    Tham gia ngày:
    11/4/09
    Bài viết:
    92
    Đã được cảm ơn:
    5
    Đang kéo. Cám ơn chủ thớt!
     
Trạng thái chủ đề:
Không mở trả lời sau này.

Chia sẻ trang này