[MULTI] Once Upon A Time In Lingjian Mountain 1080p NF WEB-DL DDP2.0 x264 ~ Thuở Xưa Có Ngọn Núi Linh Kiếm

Thảo luận trong 'Phim bộ - Series' bắt đầu bởi adm820, 21/1/20.

Tags
  1. adm820

    adm820 Moderator Thành viên BQT

    Tham gia ngày:
    1/12/10
    Bài viết:
    8,036
    Đã được cảm ơn:
    189,012
    Giới tính:
    Nam
    [​IMG]

    upload_2020-1-21_22-59-55.png


    Mã:

    Format                      : Matroska
    
    	

    Format version : Version 4 File size : 2.10 GiB Duration : 47 min 39 s Overall bit rate mode : Variable Overall bit rate : 6 305 kb/s Encoded date : UTC 2020-01-21 14:28:16 Writing application : mkvmerge v42.0.0 ('Overtime') 64-bit Writing library : libebml v1.3.10 + libmatroska v1.5.2 Video ID : 1 Format : AVC Format/Info : Advanced Video Codec Format profile : Main@L4 Format settings : CABAC / 3 Ref Frames Format settings, CABAC : Yes Format settings, Reference : 3 frames Codec ID : V_MPEG4/ISO/AVC Duration : 47 min 39 s Bit rate mode : Variable Bit rate : 6 190 kb/s Maximum bit rate : 9 285 kb/s Width : 1 920 pixels Height : 1 080 pixels Display aspect ratio : 16:9 Frame rate mode : Constant Frame rate : 25.000 FPS Color space : YUV Chroma subsampling : 4:2:0 Bit depth : 8 bits Scan type : Progressive Bits/(Pixel*Frame) : 0.119 Stream size : 2.06 GiB (98%) Writing library : x264 core 148 r2715 7e75228 Encoding settings : cabac=1 / ref=3 / deblock=1:0:0 / analyse=0x1:0x111 / me=umh / subme=10 / psy=1 / psy_rd=1.00:0.00 / mixed_ref=1 / me_range=24 / chroma_me=1 / trellis=2 / 8x8dct=0 / cqm=0 / deadzone=21,11 / fast_pskip=1 / chroma_qp_offset=-2 / threads=8 / lookahead_threads=1 / sliced_threads=0 / nr=0 / decimate=1 / interlaced=0 / bluray_compat=0 / stitchable=1 / constrained_intra=0 / bframes=2 / b_pyramid=0 / b_adapt=2 / b_bias=0 / direct=3 / weightb=1 / open_gop=0 / weightp=2 / keyint=250 / keyint_min=25 / scenecut=0 / intra_refresh=0 / rc_lookahead=50 / rc=2pass / mbtree=1 / bitrate=6190 / ratetol=1.0 / qcomp=0.50 / qpmin=6 / qpmax=51 / qpstep=4 / cplxblur=20.0 / qblur=0.5 / vbv_maxrate=9285 / vbv_bufsize=12380 / nal_hrd=vbr / filler=0 / ip_ratio=1.40 / aq=1:1.00 Default : Yes Forced : No Audio ID : 2 Format : E-AC-3 Format/Info : Enhanced AC-3 Commercial name : Dolby Digital Plus Codec ID : A_EAC3 Duration : 47 min 39 s Bit rate mode : Constant Bit rate : 128 kb/s Channel(s) : 2 channels Channel layout : L R Sampling rate : 48.0 kHz Frame rate : 31.250 FPS (1536 SPF) Compression mode : Lossy Stream size : 43.6 MiB (2%) Title : Mandarin [Original] Language : Chinese Service kind : Complete Main Default : Yes Forced : No Text #1 ID : 3 Format : UTF-8 Codec ID : S_TEXT/UTF8 Codec ID/Info : UTF-8 Plain Text Duration : 43 min 31 s Bit rate : 55 b/s Count of elements : 809 Stream size : 17.7 KiB (0%) Title : Simplified Chinese Language : Chinese Default : No Forced : No Text #2 ID : 4 Format : UTF-8 Codec ID : S_TEXT/UTF8 Codec ID/Info : UTF-8 Plain Text Duration : 39 min 9 s Bit rate : 0 b/s Count of elements : 9 Stream size : 175 Bytes (0%) Title : Forced Language : Chinese Default : No Forced : Yes Text #3 ID : 5 Format : UTF-8 Codec ID : S_TEXT/UTF8 Codec ID/Info : UTF-8 Plain Text Duration : 47 min 27 s Bit rate : 51 b/s Count of elements : 811 Stream size : 18.0 KiB (0%) Title : Traditional Chinese Language : Chinese Default : No Forced : No Text #4 ID : 6 Format : UTF-8 Codec ID : S_TEXT/UTF8 Codec ID/Info : UTF-8 Plain Text Duration : 47 min 25 s Bit rate : 66 b/s Count of elements : 792 Stream size : 23.0 KiB (0%) Title : English Language : English Default : No Forced : No Text #5 ID : 7 Format : UTF-8 Codec ID : S_TEXT/UTF8 Codec ID/Info : UTF-8 Plain Text Duration : 47 min 27 s Bit rate : 153 b/s Count of elements : 813 Stream size : 53.3 KiB (0%) Title : Thai Language : Thai Default : No Forced : No Text #6 ID : 8 Format : UTF-8 Codec ID : S_TEXT/UTF8 Codec ID/Info : UTF-8 Plain Text Duration : 43 min 31 s Bit rate : 91 b/s Count of elements : 793 Stream size : 29.1 KiB (0%) Language : Vietnamese Default : Yes Forced : No
    [​IMG]
    [​IMG]
    [​IMG]
    [​IMG]



    Link tải 37 Tập có sẵn |Sub việt

    Nhấn nút Cảm ơn (dưới chân bài) để thấy link!
     
    chisu, toacoaing, miuxinh89 and 71 others like this.
  2. HảiYến2k

    HảiYến2k Well-Known Member

    Tham gia ngày:
    5/7/19
    Bài viết:
    250
    Đã được cảm ơn:
    326
    Giới tính:
    Nữ
    Cảm ơn a phim rất hay
     
  3. tiensh98

    tiensh98 Active Member

    Tham gia ngày:
    22/10/17
    Bài viết:
    649
    Đã được cảm ơn:
    243
    Giới tính:
    Nam
    phim này cảm giác mồm diễn viên vói tiếng ko khớp lắm @@
     
  4. tiensh98

    tiensh98 Active Member

    Tham gia ngày:
    22/10/17
    Bài viết:
    649
    Đã được cảm ơn:
    243
    Giới tính:
    Nam
    tks bác đã up nhưng xem bản lậu nó hay hơn , bản này sub dịch toẹt hết tiếng việt ra nhiều chỗ nên để hán việt nó mới hay @@
     
  5. BabyMouse

    BabyMouse Member

    Tham gia ngày:
    30/11/09
    Bài viết:
    70
    Đã được cảm ơn:
    4
    Không download về được. Ví dụ như file số 6 chẳng hạn.
     
    locsd cảm ơn bài này.
  6. traitimxanh

    traitimxanh Well-Known Member

    Tham gia ngày:
    4/12/09
    Bài viết:
    455
    Đã được cảm ơn:
    795
    Giới tính:
    Nam
    Nghề nghiệp:
    Engineer
    Nơi ở:
    Viet Nam
    Bác chủ xem lại dùm tập 6 download bữa giờ vẫn không được
     
    BabyMouse cảm ơn bài này.
  7. traitimxanh

    traitimxanh Well-Known Member

    Tham gia ngày:
    4/12/09
    Bài viết:
    455
    Đã được cảm ơn:
    795
    Giới tính:
    Nam
    Nghề nghiệp:
    Engineer
    Nơi ở:
    Viet Nam
    @adm820 bác ơi xem dùm tập 6 từ trước tết giờ vẫn không down được
     
  8. adm820

    adm820 Moderator Thành viên BQT

    Tham gia ngày:
    1/12/10
    Bài viết:
    8,036
    Đã được cảm ơn:
    189,012
    Giới tính:
    Nam
    chắc lỗi từ fshare rồi

    upload_2020-2-1_10-19-50.png
     
    taynguyendie cảm ơn bài này.
  9. thuongdienphabo

    thuongdienphabo Well-Known Member

    Tham gia ngày:
    14/7/09
    Bài viết:
    129
    Đã được cảm ơn:
    307
    Nghề nghiệp:
    Bảy nghề (không phải thất nghiệp nha)
    Nơi ở:
    Việt Nam
    Có ai dịch cái tựa hay hay chút không ta : Ví dụ như Linh Sơn Cổ tự hay Linh sơn thần kiếm gì đó còn dịch theo nghĩa đen như trên kia nó tục tục sao đó.Hoặc để nguyên bản :
    Tung Tiền Hữu Tọa Linh Kiếm Sơn
     
  10. adm820

    adm820 Moderator Thành viên BQT

    Tham gia ngày:
    1/12/10
    Bài viết:
    8,036
    Đã được cảm ơn:
    189,012
    Giới tính:
    Nam
    đã reup lại tập 6
     
    taynguyendie cảm ơn bài này.

Chia sẻ trang này