[Fshare] Paul McCartney: In Performance at the White House 2010 1080i HDTV DD 5.1-CtrlHD

Thảo luận trong 'HD Video Clip' bắt đầu bởi GNAD96213, 16/1/17.

  1. GNAD96213

    GNAD96213 Well-Known Member

    Tham gia ngày:
    28/9/11
    Bài viết:
    1,117
    Đã được cảm ơn:
    5,749
    Giới tính:
    Nam
    Nơi ở:
    Hà Nội
    ***Paul McCartney: In Performance at the White House 2010 1080i HDTV DD 5.1-CtrlHD***

    [​IMG]


    Tracklist
    Mã:
    01. Got To Get You Into My Life (by Sir Paul McCartney)
    02. We Can Work It Out (by Stevie Wonder)
    03. Drive My Car (by Jonas Brothers)
    
    
    04. Mother Nature's Son (by Jack White)
    05. Long and Winding Road (by Faith Hill)
    06. Blackbird (by Herbie Hancock and Corinne Bailey Rae)
    07. Penny Lane (by Elvis Costello)
    08. For No One (by Emmylou Harris)
    09. Celebrations (by Lang Lang)
    10. Band on the Run (by Dave Grohl)
    11. Ebony and Ivory (by Stevie Wonder and Sir Paul McCartney)
    12. Michelle (by Sir Paul McCartney)
    13. Eleanor Rigby (by Sir Paul McCartney)
    14. Let It Be (by Sir Paul McCartney)
    15. Hey Jude (by Ensemble of artists, with President Obama)
    16. Yesterday (by Sir Paul McCartney)

    Media Info
    Mã:
    Format                         : MPEG-TS
    File size                      : 8.22 GiB
    Duration                       : 1h 24mn
    Overall bit rate mode          : Variable
    Overall bit rate               : 14.0 Mbps
    Law rating                     : TV-G
    Video
    ID                             : 33 (0x21)
    Menu ID                        : 1 (0x1)
    Format                         : MPEG Video
    Format version                 : Version 2
    Format profile                 : Main@High
    Format settings, BVOP          : Yes
    Format settings, Matrix        : Custom
    Format settings, GOP           : Variable
    Format settings, picture struc : Frame
    Codec ID                       : 2
    Duration                       : 1h 24mn
    Bit rate mode                  : Variable
    Bit rate                       : 12.9 Mbps
    Maximum bit rate               : 65.0 Mbps
    Width                          : 1 920 pixels
    Height                         : 1 080 pixels
    Display aspect ratio           : 16:9
    Frame rate                     : 29.970 fps
    Color space                    : YUV
    Chroma subsampling             : 4:2:0
    Bit depth                      : 8 bits
    Scan type                      : Interlaced
    Scan order                     : Top Field First
    Compression mode               : Lossy
    Bits/(Pixel*Frame)             : 0.207
    Time code of first frame       : 00:00:00;00
    Time code source               : Group of pictures header
    Stream size                    : 7.59 GiB (92%)
    Audio
    ID                             : 36 (0x24)
    Menu ID                        : 1 (0x1)
    Format                         : AC-3
    Format/Info                    : Audio Coding 3
    Mode extension                 : CM (complete main)
    Format settings, Endianness    : Big
    Codec ID                       : 129
    Duration                       : 1h 24mn
    Bit rate mode                  : Constant
    Bit rate                       : 384 Kbps
    Channel(s)                     : 6 channels
    Channel positions              : Front: L C R, Side: L R, LFE
    Sampling rate                  : 48.0 KHz
    Compression mode               : Lossy
    Stream size                    : 232 MiB (3%)
    Language                       : English
    Text #1
    ID                             : 33 (0x21)-CC1
    Menu ID                        : 1 (0x1)
    Format                         : EIA-608
    Muxing mode                    : A/53 / DTVCC Transport
    Muxing mode, more info         : Muxed in Video #1
    Duration                       : 1h 24mn
    Bit rate mode                  : Constant
    Stream size                    : 0.00 Byte (0%)
    Text #2
    ID                             : 33 (0x21)-1
    Menu ID                        : 1 (0x1)
    Format                         : EIA-708
    Muxing mode                    : A/53 / DTVCC Transport
    Muxing mode, more info         : Muxed in Video #1
    Duration                       : 1h 24mn
    Bit rate mode                  : Constant
    Stream size                    : 0.00 Byte (0%)
    
    Screenshots
    [​IMG]

     
    huyhap, tumanh, Vietnm_07 and 2 others like this.

Chia sẻ trang này