[Fshare] [Perf] Em đẹp nhất đêm nay - Tóc Tiên (Paris By Night 108) [Encoded][1080p.H264.AC3]

Thảo luận trong 'Việt Nam' bắt đầu bởi tungnv, 8/6/13.

  1. tungnv

    tungnv Member

    Tham gia ngày:
    28/5/09
    Bài viết:
    115
    Đã được thích:
    1
    Điểm thành tích:
    18
    Em đẹp nhất đêm nay - Tóc Tiên


    [​IMG]

    Mã:
    General
    Unique ID                                : 227675045817117562033013699576958059039 (0xAB489E6BD519F23DA14388F2DE4C821F)
    Complete name                            : C:\Documents and Settings\Tung Vu\Desktop\demo\28 - Em dep nhat dem nay - Toc Tien - PBN108 (1080p.x264.AC3).mkv
    Format                                   : Matroska
    Format version                           : Version 4 / Version 2
    File size                                : 140 MiB
    Duration                                 : 4mn 13s
    Overall bit rate                         : 4 632 Kbps
    Movie name                               : Em dep nhat dem nay - Thuy Nga 108 - Encoded by Tungnv
    Encoded date                             : UTC 2013-06-08 08:54:29
    Writing application                      : mkvmerge v6.2.0 ('Promised Land') built on Apr 28 2013 12:22:01
    Writing library                          : libebml v1.3.0 + libmatroska v1.4.0
    
    Video
    ID                                       : 2
    Format                                   : AVC
    Format/Info                              : Advanced Video Codec
    Format profile                           : High@L4.0
    Format settings, CABAC                   : Yes
    Format settings, ReFrames                : 4 frames
    Codec ID                                 : V_MPEG4/ISO/AVC
    Duration                                 : 4mn 13s
    Bit rate                                 : 3 724 Kbps
    Width                                    : 1 920 pixels
    Height                                   : 1 080 pixels
    Display aspect ratio                     : 16:9
    Frame rate mode                          : Constant
    Frame rate                               : 29.970 fps
    Color space                              : YUV
    Chroma subsampling                       : 4:2:0
    Bit depth                                : 8 bits
    Scan type                                : Progressive
    Bits/(Pixel*Frame)                       : 0.060
    Stream size                              : 110 MiB (79%)
    Writing library                          : x264 core 130 r2273 b3065e6
    Encoding settings                        : cabac=1 / ref=3 / deblock=1:0:0 / analyse=0x3:0x113 / me=hex / subme=7 / psy=1 / psy_rd=1.00:0.00 / mixed_ref=1 / me_range=16 / chroma_me=1 / trellis=1 / 8x8dct=1 / cqm=0 / deadzone=21,11 / fast_pskip=1 / chroma_qp_offset=-2 / threads=3 / lookahead_threads=1 / sliced_threads=0 / nr=0 / decimate=1 / interlaced=0 / bluray_compat=0 / constrained_intra=0 / bframes=3 / b_pyramid=2 / b_adapt=1 / b_bias=0 / direct=1 / weightb=1 / open_gop=0 / weightp=2 / keyint=300 / keyint_min=29 / scenecut=40 / intra_refresh=0 / rc_lookahead=40 / rc=2pass / mbtree=1 / bitrate=3724 / ratetol=1.0 / qcomp=0.60 / qpmin=0 / qpmax=69 / qpstep=4 / cplxblur=20.0 / qblur=0.5 / ip_ratio=1.40 / aq=1:1.00
    Default                                  : Yes
    Forced                                   : No
    
    Audio #1
    ID                                       : 1
    Format                                   : AC-3
    Format/Info                              : Audio Coding 3
    Mode extension                           : CM (complete main)
    Format settings, Endianness              : Big
    Codec ID                                 : A_AC3
    Duration                                 : 4mn 13s
    Bit rate mode                            : Constant
    Bit rate                                 : 448 Kbps
    Channel(s)                               : 6 channels
    Channel positions                        : Front: L C R, Side: L R, LFE
    Sampling rate                            : 48.0 KHz
    Bit depth                                : 16 bits
    Compression mode                         : Lossy
    Stream size                              : 13.5 MiB (10%)
    Default                                  : Yes
    Forced                                   : No
    
    Audio #2
    ID                                       : 3
    Format                                   : AC-3
    Format/Info                              : Audio Coding 3
    Mode extension                           : CM (complete main)
    Format settings, Endianness              : Big
    Codec ID                                 : A_AC3
    Duration                                 : 4mn 13s
    Bit rate mode                            : Constant
    Bit rate                                 : 448 Kbps
    Channel(s)                               : 2 channels
    Channel positions                        : Front: L R
    Sampling rate                            : 48.0 KHz
    Bit depth                                : 16 bits
    Compression mode                         : Lossy
    Stream size                              : 13.5 MiB (10%)
    Default                                  : No
    Forced                                   : No
    
    
     
  2. ankpop88

    ankpop88 New Member

    Tham gia ngày:
    8/1/11
    Bài viết:
    236
    Đã được thích:
    0
    Điểm thành tích:
    0
    cho minh hoi 1 cái! la encoded thanh mkv rồi thì chất lượng âm thanh so với m2ts có khác biệt ko? xin chỉ giáo
     
  3. tungnv

    tungnv Member

    Tham gia ngày:
    28/5/09
    Bài viết:
    115
    Đã được thích:
    1
    Điểm thành tích:
    18
    Ðề: [Perf] Em đẹp nhất đêm nay - Tóc Tiên (Paris By Night 108) [Encoded][1080p.H264.AC3]

    Theo mình làm thì không ảnh hưởng gì đến âm thanh so với bản gốc cả.Vì mình chỉ extract audio và video ra sau đó encode video rồi muxed lại thôi.
     
  4. mrta88

    mrta88 New Member

    Tham gia ngày:
    5/1/10
    Bài viết:
    23
    Đã được thích:
    0
    Điểm thành tích:
    0
    Ðề: [Perf] Em đẹp nhất đêm nay - Tóc Tiên (Paris By Night 108) [Encoded][1080p.H264.AC3]

    thanks bác chủ!
     
  5. takasi01

    takasi01 New Member

    Tham gia ngày:
    19/10/10
    Bài viết:
    756
    Đã được thích:
    1
    Điểm thành tích:
    0
    Nghề nghiệp:
    Sinh viên
    Nơi ở:
    Q12, TPHCM
    Web:
    Ðề: [Perf] Em đẹp nhất đêm nay - Tóc Tiên (Paris By Night 108) [Encoded][1080p.H264.AC3]

    chủ rạp ơi, rãnh thì làm thêm mấy cai hài trong thúy nga 107 và 108 luôn nha, đang tìm cho chiếc ip ở nhà ^^
     
  6. tungnv

    tungnv Member

    Tham gia ngày:
    28/5/09
    Bài viết:
    115
    Đã được thích:
    1
    Điểm thành tích:
    18
    Ðề: [Perf] Em đẹp nhất đêm nay - Tóc Tiên (Paris By Night 108) [Encoded][1080p.H264.AC3]

    Một số bài trong Thúy Nga 107 mình đã encode và cũng up lên đây rồi đấy bạn. Bạn xem đi, tuy nhiên vì cái fshare nó có vấn đề nên bị die một số link rồi. Bạn cứ xem có gì report mình reup lại cho nhé !
     

Chia sẻ trang này