[Fshare] [Perl]Thương lắm mình ơi - Như Quỳnh - PBN 105 [1080i.x264.DD5.1.Tungnv]

Thảo luận trong 'Việt Nam' bắt đầu bởi tungnv, 25/6/12.

  1. tungnv

    tungnv New Member

    Tham gia ngày:
    28/5/09
    Bài viết:
    115
    Đã được thích:
    1
    Điểm thành tích:
    0
    [Perl]Thương lắm mình ơi - Như Quỳnh - PBN 105 [1080i.x264.DD5.1.Tungnv]

    [​IMG]

    Mã:
    General
    Unique ID                      : 170256572610375149451774982948949216316 (0x8016391FD3F52670959B50CBF2664C3C)
    Complete name                  : C:\Documents and Settings\VUDUYTUNG\Desktop\Qua con me\Thuong lam minh oi - Nhu Quynh.1080i.x264.DD5.1.mkv
    Format                         : Matroska
    Format version                 : Version 2
    File size                      : 320 MiB
    Duration                       : 4mn 52s
    Overall bit rate               : 9 176 Kbps
    Movie name                     : Thuong lam minh oi - Nhu Quynh | Tungnv|HDvietnam.com
    Encoded date                   : UTC 2012-06-25 02:06:01
    Writing application            : mkvmerge v5.6.0 ('Kenya Kane') built on May 27 2012 16:44:04
    Writing library                : libebml v1.2.3 + libmatroska v1.3.0
    
    Video
    ID                             : 1
    Format                         : AVC
    Format/Info                    : Advanced Video Codec
    Format profile                 : High@L5.0
    Format settings, CABAC         : Yes
    Format settings, ReFrames      : 5 frames
    Muxing mode                    : Header stripping
    Codec ID                       : V_MPEG4/ISO/AVC
    Duration                       : 4mn 52s
    Bit rate                       : 8 098 Kbps
    Width                          : 1 920 pixels
    Height                         : 1 080 pixels
    Display aspect ratio           : 16:9
    Frame rate mode                : Variable
    Frame rate                     : 29.970 fps
    Color space                    : YUV
    Chroma subsampling             : 4:2:0
    Bit depth                      : 8 bits
    Scan type                      : Progressive
    Bits/(Pixel*Frame)             : 0.130
    Stream size                    : 283 MiB (88%)
    Title                          : PBN105 - The Lovers
    Language                       : Vietnamese
    Default                        : No
    Forced                         : No
    Color primaries                : BT.709-5, BT.1361, IEC 61966-2-4, SMPTE RP177
    Transfer characteristics       : BT.709-5, BT.1361
    Matrix coefficients            : BT.709-5, BT.1361, IEC 61966-2-4 709, SMPTE RP177
    
    Audio #1
    ID                             : 2
    Format                         : AC-3
    Format/Info                    : Audio Coding 3
    Mode extension                 : CM (complete main)
    Format settings, Endianness    : Big
    Muxing mode                    : Header stripping
    Codec ID                       : A_AC3
    Duration                       : 4mn 52s
    Bit rate mode                  : Constant
    Bit rate                       : 448 Kbps
    Channel(s)                     : 6 channels
    Channel positions              : Front: L C R, Side: L R, LFE
    Sampling rate                  : 48.0 KHz
    Bit depth                      : 16 bits
    Compression mode               : Lossy
    Delay relative to video        : 5ms
    Stream size                    : 15.6 MiB (5%)
    Title                          : Dolby Digital 5.1
    Language                       : Vietnamese
    Default                        : No
    Forced                         : Yes
    
    Audio #2
    ID                             : 3
    Format                         : AC-3
    Format/Info                    : Audio Coding 3
    Mode extension                 : CM (complete main)
    Format settings, Endianness    : Big
    Muxing mode                    : Header stripping
    Codec ID                       : A_AC3
    Duration                       : 4mn 52s
    Bit rate mode                  : Constant
    Bit rate                       : 448 Kbps
    Channel(s)                     : 2 channels
    Channel positions              : Front: L R
    Sampling rate                  : 48.0 KHz
    Bit depth                      : 16 bits
    Compression mode               : Lossy
    Delay relative to video        : 5ms
    Stream size                    : 15.6 MiB (5%)
    Title                          : Dolby Digital 2.0
    Language                       : Vietnamese
    Default                        : No
    Forced                         : No
    
    Menu
    00:00:00.000                   : vi:01:15:41.904
    
    
    [DOWNBOX][HIDE]http://www.fshare.vn/file/T644VQQ04T/
    [/HIDE][/DOWNBOX]

    Bản mHD 720p
    [DOWNBOX][HIDE]http://www.hdvietnam.com/diendan/191-viet-nam/392678-perl-thuong-lam-minh-oi-nhu.html#post3003550[/HIDE][/DOWNBOX]
     
    Chỉnh sửa cuối: 26/6/12
  2. MrNothing

    MrNothing Member

    Tham gia ngày:
    21/4/11
    Bài viết:
    90
    Đã được thích:
    1
    Điểm thành tích:
    8
    Ðề: [Perl]Thương lắm mình ơi - Như Quỳnh - PBN 105 [1080i.x264.DD5.1.Tungnv]

    Nhầm hàng bài "Cho em ngày mới - Tóc Tiên" rồi bác chủ thớt ơi
     
  3. tungnv

    tungnv New Member

    Tham gia ngày:
    28/5/09
    Bài viết:
    115
    Đã được thích:
    1
    Điểm thành tích:
    0
    Ðề: [Perl]Thương lắm mình ơi - Như Quỳnh - PBN 105 [1080i.x264.DD5.1.Tungnv]

    Đã fix lại link. Thanks!
     
  4. trungng

    trungng Member

    Tham gia ngày:
    10/12/09
    Bài viết:
    282
    Đã được thích:
    1
    Điểm thành tích:
    18
    Thêm những bài còn lại đi bác chủ ơi.
     
  5. ngoctq

    ngoctq New Member

    Tham gia ngày:
    10/4/12
    Bài viết:
    60
    Đã được thích:
    0
    Điểm thành tích:
    0
    Ðề: [Perl]Thương lắm mình ơi - Như Quỳnh - PBN 105 [1080i.x264.DD5.1.Tungnv]

    Như Quỳnh vẫn hát hay như ngày nào tuy không còn "trẻ" như xưa.
     
  6. dovanhungbn

    dovanhungbn New Member

    Tham gia ngày:
    19/11/12
    Bài viết:
    21
    Đã được thích:
    0
    Điểm thành tích:
    0
    file quá chất lượng,hình ảnh âm thanh cứ gọi là phê lòi,đang thưởng thức với quả microlap 5.1 :D
     
  7. tintru

    tintru New Member

    Tham gia ngày:
    5/4/12
    Bài viết:
    59
    Đã được thích:
    0
    Điểm thành tích:
    0
    Ðề: [Perl]Thương lắm mình ơi - Như Quỳnh - PBN 105 [1080i.x264.DD5.1.Tungnv]

    Sau khi chuyển qua trung tâm Asia, NQ trở lại Thúy Nga vẫn phủ hợp hơn thì phải.
     
  8. meoconlontonkl

    meoconlontonkl New Member

    Tham gia ngày:
    29/8/12
    Bài viết:
    24
    Đã được thích:
    0
    Điểm thành tích:
    0
    Link không tồn tại là sao?
     

Chia sẻ trang này