[Fshare] [Phiêu lưu|Blu-ray ISO] Naruto the Movie collection (2004-2015) 1080p Blu-ray AVC DTS-HD MA 5.1 (ISO

Thảo luận trong 'Phim hoạt hình' bắt đầu bởi v0minh, 30/10/15.

  1. v0minh

    v0minh Huyền Thoại

    Tham gia ngày:
    23/12/14
    Bài viết:
    19,560
    Đã được cảm ơn:
    170,742
    Giới tính:
    Nam
    Nghề nghiệp:
    Blogger
    Nơi ở:
    Hải Phòng

    Naruto là một ninja thuộc về làng Lá với khát vọng được trở thành người lãnh đạo làng, Hokage. Dân làng xa lánh Naruto vì Cửu Vĩ, một sinh vật tàn bạo đã tấn công làng Lá, được phong ấn bên trong cơ thể cậu ta. Tuy vậy, Naruto vẫn giữ được tính cách vui vẻ và ồn ào, giúp cậu ta kết bạn với vài ninja làng Lá khác trong truyện, cũng như những ninja từ làng khác. Cậu ta đặc biệt có mối quan hệ gần gũi với Uchiha Sasuke, một trong những ninja cùng nhóm 7, và đối xử với cậu như anh em. Trong giai đoạn sau, phỏng theo trí nhớ của Jiraiya, Hokage Đệ tứ chính là cha ruột của Naruto. Series The Movie là các bộ phim lẻ đặc sắc, cực hiếm v0minh tôi phải canh hàng tháng trời mới xong được nửa.

    --------------------- o0o ---------------------




    [TABLE][TR][TD=width: 120, bgcolor: pink, align:center]

    [​IMG]

    Ratings: 6.7/10
    - Phụ Đề -
    [/TD] [TD=bgcolor: #FFFFCC]
    Naruto the Movie: Ninja Clash in the Land of Snow 2004 - Naruto: Cuộc chiến ở Tuyết Quốc
    (Junko Takeuchi, Chie Nakamura, Noriaki Sugiyama)

    Yukie Fujikaze là một ngôi sao đang lên của bộ phim ăn khách "The Adventures of Princess Gale". Khi cả đoàn làm phim đề nghị tới làng Ninja Tuyết để thực hiện một phân đoạn, Yukie bất ngờ từ chối và bỏ trốn. Naruto và đội Ninja dưới sự dẫn dắt của Kakashi tham gia vào một nhiệm vụ mới không kém phần hấp dẫn: tìm ra tung tích của nữ diễn viên nổi tiếng này và đưa cô trở lại đoàn. Tuy nhiên cả nhóm phát hiện ra Yukie đang che dấu một bí mật về quá khứ của mình có liên quan đến làng Tuyết.

    1080p Blu-ray AVC DTS-HD MA 5.1-v0 (ISO) {28.6 GiB} Fshare | Folder [​IMG]
    ViE 720p BluRay FLAC5.1 x264 {2.3 GiB} Fshare | Folder (Thuyết Minh)
    [/TD][/TR][/TABLE]

    [TABLE][TR][TD=width: 120, bgcolor: pink, align:center]

    [​IMG]
    Ratings: 6.7/10
    - Phụ Đề -
    [/TD] [TD=bgcolor: #FFFFCC]
    Naruto the Movie 2: Legend of the Stone of Gelel 2005 - Huyền Thoại Đá Gelel
    (Junko Takeuchi, Shotaro Morikubo, Chie Nakamura)

    Câu chuyện mở đầu với trận chiến tại một bờ biển hoang vắng vào ban đêm giữa ninja làng Cát và những tên khổng lồ mặc chiếc áo giáp nâu. Những ninja làng Cát đang hoàn toàn bị thất thế trước những tên to lớn này. Đúng lúc đó Gaara và Kankuro xuất hiện để bảo vệ họ.

    1080p Blu-ray AVC DTS-HD MA 5.1 (ISO) {30.3 GiB} Fshare | Folder [​IMG]
    ViE 720p BluRay FLAC 5.1 x264 {2.8 GiB} Fshare | Folder (Thuyết Minh)
    [/TD][/TR][/TABLE]

    [TABLE][TR][TD=width: 120, bgcolor: pink, align:center]

    [​IMG]
    Ratings: 6.5/10
    - Phụ Đề -
    [/TD] [TD=bgcolor: #FFFFCC]
    Naruto the Movie 3: Guardians of the Crescent Moon Kingdom 2006 - Naruto: Những Lính Gác Của Nguyệt Quốc
    (Junko Takeuchi, Chie Nakamura, Yôichi Masukawa)

    Câu chuyện bắt đầu từ việc bộ bốn Naruto, Sakura, Rock Lee và Kakashi nhận nhiệm vụ bảo vệ vị hoàng tử béo hay ham chơi Michiru và cậu con trai với cặp kính cận to Hikaru .Theo lời của Tsunade, đây là một nơi du lịch khá nổi tiếng với hòn đảo hình trăng khuyết cùng với bãi biển đẹp luôn khiến bà mong sẽ được đến đây 1 lần. Tuy nhiên hòn đảo ko yên bình đẹp đẽ như bề ngoài của nó, bên trong đang tiềm ẩn những mâu thuẫn sâu sắc giữa 2 thế lực và nhóm Kakashi vô tình bị cuốn vào.

    1080p Blu-ray AVC DTS-HD MA 5.1-v0 (ISO) {30.9 GiB} Fshare | Folder [​IMG]
    ViE 720p BluRay FLAC5.1 x264 {2.9 GiB} Fshare | Folder (Thuyết Minh)
    [/TD][/TR][/TABLE]

    [TABLE][TR][TD=width: 120, bgcolor: pink, align:center]

    [​IMG]
    Ratings: 7.0/10
    - Phụ Đề -
    [/TD] [TD=bgcolor: #FFFFCC]
    Naruto Shippuden: The Movie 2007 - Naruto: Cái chết được báo trước
    (Junko Takeuchi, Chie Nakamura, Yôichi Masukawa)

    Ác quỷ Mouryou đã từng một thời gần như hủy diệt hoàn toàn thế giới , nay lại được hồi sinh một lần nữa. Để giải cứu thế giới khỏi bị hủy diệt, để phong ấn ác quỷ Mouryou chỉ có duy nhất một người làm được. Đó là nữ pháp sư Shion ở Quỷ Quốc với hai sức mạnh đặc biệt, một là phong ấn ác quỷ, hai là tiên đoán được cái chết của người khác. Nhiệm vụ lần này của Naruto là hộ tống bảo vệ nữ pháp sư, nhưng cô ấy lại tiên đoán rằng Naruto sẽ bị chết. Cách duy nhất để thoát được cái chết là phải tránh xa Shion. Thế nhưng khi rời bỏ Shion thì ác quỷ Mouryou với dã tâm độc ác sẽ tìm đến và giết Shion, khi đó thế giới sẽ bị hủy diệt. Naruto đã quyết định sẽ chiến đấu tới cùng, thách thức cả lời tiên đoán về cái chết.

    1080p Blu-ray AVC DTS-HD MA 5.1-v0 (ISO) {20.8 GiB} Fshare | Folder [​IMG]
    ViE 720p BluRay FLAC5.1 x264 {3.3 GiB} Fshare | Folder (Thuyết Minh)
    [/TD][/TR][/TABLE]

    [TABLE][TR][TD=width: 120, bgcolor: pink, align:center]

    [​IMG]
    Ratings: 7.0/10
    - Phụ Đề -
    [/TD] [TD=bgcolor: #FFFFCC]
    Naruto Shippuden The Movie: Bonds 2008 - Naruto Shippuden: Nhiệm vụ bí mật
    (Junko Takeuchi, Chie Nakamura, Noriaki Sugiyama)

    Một nhóm ninja bí ẩn đến từ Không Quốc (Sora no Kuni) được gọi là Sora-nin đã bất ngờ tấn công Konoha. Họ là những thành phần còn sót lại của Không Quốc sau khi nơi đó gần như bị huỷ diệt bởi Konoha trong trận Ninja đại chiến lần hai. Mục tiêu lần này của bọn họ là Hoả Quốc (Land of Fire), hay nói chính xác hơn, thì chính là nhằm vào Konoha để trả thù rửa hận.Họ bắt đầu tấn công vào Konoha với những Sora-nin bay lượn trên không nhờ các thiết bị cơ khí có cánh và bắt đầu đánh bom vào làng, tạo nên cảnh tượng hỗn loạn vô cùng. Cùng lúc đó có một cậu bé đã vượt qua quãng đường rất dài để đến được Konoha, cậu nói làng của cậu đã bị tấn công và giờ thì cậu đang tìm người thầy hiện ở ngay tại Konoha để đưa ông ấy về chữa thương cho dân làng cậu.

    1080p Blu-ray AVC DTS-HD MA 5.1-v0 (ISO) {32.7 GiB} Fshare | Folder [​IMG]
    ViE 720p BluRay FLAC5.1 x264 {3.1 GiB} Fshare | Folder (Thuyết Minh)
    [/TD][/TR][/TABLE]

    [TABLE][TR][TD=width: 120, bgcolor: pink, align:center]

    [​IMG]
    Ratings: 7.2/10
    - Phụ Đề -
    [/TD] [TD=bgcolor: #FFFFCC]
    Naruto Shippuden the Movie: The Will of Fire 2009 - Naruto: Người Kế Thừa Hỏa Chí
    (Junko Takeuchi, Chie Nakamura, Satoshi Hino)

    Tập phim xoay quanh nguy cơ nổ ra Đại chiến Ninja lần thứ 4 khi các ninja có huyết kế giới hạn ở các làng sương mù, làng đá, làng mây và làng cát bỗng nhiên bắt đầu biến mất. Các quốc gia nghi ngờ làng lá - làng duy nhất không bị ảnh hưởng, đã gây ra tai nạn trên và tung tin đồn về việc Konoha đang có kế hoạch tạo phản. Đồng thời họ điều động quân đội đến biên giới Hỏa Quốc chuẩn bị phát động tấn công. Những người đứng đầu Hỏa Quốc phải chứng minh sự trong sạch của Konoha tìm ra nguyên nhân vụ việc, nếu không họ sẽ phải xóa xổ cả làng để giữ hòa bình thế giới.

    1080p Blu-ray AVC DTS-HD MA 5.1-v0 (ISO) {30.4 GiB} Fshare | Folder [​IMG]
    ViE 720p BluRay FLAC5.1 x264 {3 GiB} Fshare | Folder (Thuyết Minh)
    [/TD][/TR][/TABLE]

    [TABLE][TR][TD=width: 120, bgcolor: pink, align:center]

    [​IMG]
    Ratings: 6.9/10
    - Phụ Đề -
    [/TD] [TD=bgcolor: #FFFFCC]
    Naruto Shippuden: The Lost Tower 2010 - Tòa Tháp Bị Lãng Quên
    (Junko Takeuchi, Chie Nakamura, Satoshi Hino)

    Được giao nhiệm vụ một để đi bắt Mukade, một missing-nin (ninja bỏ trốn). Uzumaki Naruto đc sắp đặt vào di tích lịch sử vẻ vang đã bị tàn phá: Ouran, nơi Naruto truy đuổi các ninja đang làm việc cho Mukade và Mukade. Mục tiêu của Mukade đã được tiết lộ là để có một leyline hoạt động bên trong những sự tàn phá và hắn sẽ giải phóng sức mạnh của leyline, gây ra một ánh sáng để bao bọc Naruto và gửi Nar vào quá khứ, 20 năm trước khi mọi chuyện bắt đầu. Khi Naruto thức dậy trong quá khứ, Nar đã đc tiếp xúc, nói chuyện và chiến đấu cùng Người Cha Vĩ Đại, Hokage Đệ Tứ, Namikaze.

    1080p Blu-ray AVC DTS-HD MA 5.1-v0 (ISO) {42.1 GiB} Fshare | Folder [​IMG]
    ViE 720p BluRay FLAC5.1 x264 {2.8 GiB} Fshare | Folder (Thuyết Minh)
    [/TD][/TR][/TABLE]

    [TABLE][TR][TD=width: 120, bgcolor: pink, align:center]

    [​IMG]
    Ratings: 7.4/10
    - Phụ Đề -
    [/TD] [TD=bgcolor: #FFFFCC]
    Naruto Shippuden the Movie: Blood Prison 2011 - Naruto: Huyết ngục
    (Junko Takeuchi, Chie Nakamura, Rikiya Koyama)

    Sau khi bị bắt vì âm mưu ám sát các nhà lãnh đạo của làng Mây, Raikage, và giết chết Jounin từ Kirigakure và làng Đá, Naruto bị giam cầm trong Houzukijou, phòng ngăn chặn tội phạm còn được gọi là Huyết Ngục. Chủ nhân của lâu đài, Mui, sử dụng cấm thuật để ăn cắp sức mạnh chakra từ các tù nhân. Và Naruto cũng đang bị nhắm đến. Các trận chiến để chứng minh sự vô tội của mình và khám phá sự thật đã bắt đầu cho Naruto và bạn bè của mình, Naruto bắt đầu khám phá ra bí mật trong chuyện này.

    1080p Blu-ray AVC DTS-HD MA 5.1 (ISO) {42.5 GiB} Fshare | Folder [​IMG]
    ViE 720p BluRay FLAC5.1 x264 {3.1 GiB} Fshare | Folder (Thuyết Minh)
    [/TD][/TR][/TABLE]

    [TABLE][TR][TD=width: 120, bgcolor: pink, align:center]

    [​IMG]
    Ratings: 7.8/10
    - Phụ Đề -
    [/TD] [TD=bgcolor: #FFFFCC]
    Naruto Shippuden the Movie: Road to Ninja 2012 - Naruto: Con Đường Nhẫn Giả
    (Junko Takeuchi, Chie Nakamura, Toshiyuki Morikawa)

    Naruto và Sakura đang chơi trong công viên thì gặp Madara, thành viên tổ chức Akatsuki, bắt vào trong một thế giới khác, song song với thế giới Naruto đang sống. Ở thế giới này tất cả mọi người đều thay đổi và Naruto không có tên như cũ mà bị gọi là Memma. Tính cách mọi người thay đổi và cái bất ngờ nhất là bố mẹ Naruto vẫn còn sống và không làm Hokage mà thay vào đó là bố của Sakura làm Hokage và đã hi sinh. Cái bất ngờ hơn nữa là Akatsuki lại là tổ chức đánh thuê. Trong thế giới này Naruto phải đánh lại với chính mình là Memma và hợp sức với Cửu Vĩ.

    1080p Blu-ray AVC DTS-HD MA 5.1-v0 (ISO) {21.4 GiB} Fshare | Folder [​IMG]
    ViE 720p BluRay FLAC5.1 x264 {2.4 GiB} Fshare | Folder (Thuyết Minh)
    [/TD][/TR][/TABLE]

    [TABLE][TR][TD=width: 120, bgcolor: pink, align:center]

    [​IMG]
    Ratings: 8.0/10
    - Phụ Đề -
    [/TD] [TD=bgcolor: #FFFFCC]
    The Last: Naruto the Movie 2014 - Naruto: Trận chiến cuối cùng
    (Junko Takeuchi, Nana Mizuki, Jun Fukuyama)

    Là tựa Movie thứ 7 trong loạt series Movie Naruto Shippuuden, cũng là movie thứ 10 thuộc siêu phẩm Naruto. Câu chuyện lấy bối cảnh 2 năm sau khi kết thúc cuộc Đại Chiến Ninja từ manga. Toneri, hậu nhân của Otsutsuki Hamura, cư ngụ ở mặt trăng suốt mấy trăm năm qua, nay tìm xuống Trái Đất với ý định cầu hôn công chúa Bạch Nhãn Hinata, đưa về cung trăng trước khi ra tay hủy diệt Trái Đất vì Thiên Lệnh Hamura để lại. Naruto khi đó đã cùng những người bạn của mình lên đường cứu Hinata. Khoảng thời gian này, cậu dần nhận ra tình cảm mà Hinata đã dành cho mình và bắt đầu thích cô.

    1080p Blu-ray AVC DTS-HD MA 5.1 (ISO) {40.6 GiB} Fshare [​IMG]
    720p BluRay DD5.1 x264-CtrlHD {4.3 GiB} Fshare [​IMG]
    ViE 1080p BluRay DTS x264-HDS {6.8 GiB} Fshare | Folder (Thuyết Minh)
    [/TD][/TR][/TABLE]

    [TABLE][TR][TD=width: 120, bgcolor: pink, align:center]

    [​IMG]
    Ratings: 7.5/10
    - Phụ Đề -
    [/TD] [TD=bgcolor: #FFFFCC]
    Naruto the Movie collection - Tổng hợp Naruto phim truyện
    (Uzumaki Naruto)

    Naruto là một ninja thuộc về làng Lá với khát vọng được trở thành người lãnh đạo làng, Hokage. Dân làng xa lánh Naruto vì Cửu Vĩ, một sinh vật tàn bạo đã tấn công làng Lá, được phong ấn bên trong cơ thể cậu ta. Tuy vậy, Naruto vẫn giữ được tính cách vui vẻ và ồn ào, giúp cậu ta kết bạn với vài ninja làng Lá khác trong truyện, cũng như những ninja từ làng khác. Cậu ta đặc biệt có mối quan hệ gần gũi với Uchiha Sasuke, một trong những ninja cùng nhóm 7, và đối xử với cậu như anh em. Trong giai đoạn sau, phỏng theo trí nhớ của Jiraiya, Hokage Đệ tứ chính là cha ruột của Naruto. Series The Movie là các bộ phim lẻ đặc sắc, cực hiếm v0minh tôi phải canh hàng tháng trời mới xong được nửa.

    (2004-2015) 1080p Blu-ray AVC DTS-HD MA 5.1 (ISO) {600 GiB} [​IMG]
    (2004-2015) ViE 720p BluRay FLAC5.1 x264 {100 GiB} (Thuyết Minh)
    [/TD][/TR][/TABLE]
     
    Chỉnh sửa cuối: 16/2/16
  2. v0minh

    v0minh Huyền Thoại

    Tham gia ngày:
    23/12/14
    Bài viết:
    19,560
    Đã được cảm ơn:
    170,742
    Giới tính:
    Nam
    Nghề nghiệp:
    Blogger
    Nơi ở:
    Hải Phòng
    [Hoạt hình] Naruto the Movie 3: Guardians of the Crescent Moon Kingdom 2006 1080p Blu-ray AVC DTS-HD MA 5.1-v0 (ISO) ~ Naruto: Những Lính Gác Của Nguyệt Quốc | Junko Takeuchi, Chie Nakamura, Yôichi Masukawa

    [TABLE=align: center][TR][TD=bgcolor: Crimson, align:center]

    Naruto the Movie 3: Guardians of the Crescent Moon Kingdom 2006 1080p Blu-ray AVC DTS-HD MA 5.1-v0 (ISO)



    [/TD][/TR][TR][TD=align: center, bgcolor: #FFFFCC]
    Naruto: Những Lính Gác Của Nguyệt Quốc

    (Junko Takeuchi, Chie Nakamura, Yôichi Masukawa)

    [​IMG] Ratings: 6.5/10 from 1,551 users


    [/TD][/TR][/TABLE]

    [​IMG]

    Thông tin phim. Click HERE:
    [TABLE=align: center, width: 700][TR][TD=bgcolor: RoyalBlue, align:center]Nội dung phim[/TD][/TR]
    [TR][TD=bgcolor: #FFFFCC]
    Câu chuyện bắt đầu từ việc bộ bốn Naruto, Sakura, Rock Lee và Kakashi nhận nhiệm vụ bảo vệ vị hoàng tử béo hay ham chơi Michiru và cậu con trai với cặp kính cận to Hikaru .Theo lời của Tsunade, đây là một nơi du lịch khá nổi tiếng với hòn đảo hình trăng khuyết cùng với bãi biển đẹp luôn khiến bà mong sẽ được đến đây 1 lần. Tuy nhiên hòn đảo ko yên bình đẹp đẽ như bề ngoài của nó, bên trong đang tiềm ẩn những mâu thuẫn sâu sắc giữa 2 thế lực và nhóm Kakashi vô tình bị cuốn vào.

    [/TD][/TR][/TABLE]

    [TABLE=align: center, width: 700][TR][TD=bgcolor: RoyalBlue, align:center]Media Info[/TD][/TR]
    [/TABLE]

    DISC INFO:

    Disc Title: NARUTOMOON
    Disc Size: 33,167,144,887 bytes
    Protection: AACS
    BD-Java: No
    BDInfo: 0.5.8

    PLAYLIST REPORT:

    Name: 00000.MPLS
    Length: 1:35:01.696 (h:m:s.ms)
    Size: 32,537,812,992 bytes
    Total Bitrate: 45.65 Mbps

    VIDEO:

    Codec Bitrate Description
    ----- ------- -----------
    MPEG-4 AVC Video 37968 kbps 1080p / 23.976 fps / 16:9 / High Profile 4.1

    AUDIO:

    Codec Language Bitrate Description
    ----- -------- ------- -----------
    DTS-HD Master Audio Japanese 2932 kbps 5.1 / 48 kHz / 2932 kbps / 24-bit (DTS Core: 5.1 / 48 kHz / 1509 kbps / 24-bit)
    LPCM Audio Japanese 2304 kbps 2.0 / 48 kHz / 2304 kbps / 24-bit

    SUBTITLES:

    Codec Language Bitrate Description
    ----- -------- ------- -----------
    Presentation Graphics Japanese 190.329 kbps

    FILES:

    Name Time In Length Size Total Bitrate
    ---- ------- ------ ---- -------------
    00000.M2TS 0:00:00.000 1:35:01.696 32,537,812,992 45,654




    [TABLE=align: center, width: 700][TR][TD=bgcolor: RoyalBlue, align:center]Screenshots[/TD][/TR][/TABLE]

    [​IMG] [​IMG] [​IMG]
    [​IMG] [​IMG] [​IMG]
    [​IMG] [​IMG] [​IMG]
    [​IMG] [​IMG] [​IMG]

    [TABLE=align: center, width: 700][TR][TD=bgcolor: RoyalBlue, align:center]Trailer[/TD][/TR]
    [TR][TD=bgcolor: #FFFFCC]

    [video=youtube;YZYqX-2bYy4]http://www.youtube.com/watch?v=YZYqX-2bYy4[/video]​


    [/TD][/TR][/TABLE]

    [TABLE=align: center, width: 700][TR][TD=bgcolor: RoyalBlue, align:center]Phụ Đề[/TD][/TR][TR][TD=align: center, bgcolor: #FFFFCC]

    http://subscene.com/subtitles/narut...fun-mikazukijima-no-animaru-panikku-dattebayo


    [/TD][/TR][/TABLE]

    [TABLE=align: center, width: 700][TR][TD=bgcolor: RoyalBlue, align:center]Download[/TD][/TR]
    [TR][TD=align: center, bgcolor: #FFFFCC]

    Dung lượng: 30.9 GiB
    Nhấn nút Cảm ơn (dưới chân bài) để thấy link!

    [/TD][/TR][/TABLE]

    [TABLE=align: center, width: 700][TR][TD=bgcolor: RoyalBlue, align:center]Các bản KHÁC[/TD][/TR][TR][TD=bgcolor: #FFFFCC]

    720p:
    Naruto the Movie 3: Guardians of the Crescent Moon Kingdom 2006 ViE 720p BluRay FLAC5.1 x264 - {2.9 GiB} Fshare | Phụ Đề | Thuyết Minh

    Blu-ray:
    Naruto the Movie 3: Guardians of the Crescent Moon Kingdom 2006 1080p Blu-ray AVC DTS-HD MA 5.1-v0 (ISO) - {30.9 GiB} Fshare [​IMG]


    [/TD][/TR][/TABLE]

    [TABLE][TR][TD=width: 120, bgcolor: pink, align:center]

    [​IMG]
    Ratings: 7.5/10
    - Phụ Đề -
    [/TD] [TD=bgcolor: #FFFFCC]
    Naruto the Movie collection - Tổng hợp Naruto phim truyện
    (Uzumaki Naruto)

    Naruto là một ninja thuộc về làng Lá với khát vọng được trở thành người lãnh đạo làng, Hokage. Dân làng xa lánh Naruto vì Cửu Vĩ, một sinh vật tàn bạo đã tấn công làng Lá, được phong ấn bên trong cơ thể cậu ta. Tuy vậy, Naruto vẫn giữ được tính cách vui vẻ và ồn ào, giúp cậu ta kết bạn với vài ninja làng Lá khác trong truyện, cũng như những ninja từ làng khác. Cậu ta đặc biệt có mối quan hệ gần gũi với Uchiha Sasuke, một trong những ninja cùng nhóm 7, và đối xử với cậu như anh em. Trong giai đoạn sau, phỏng theo trí nhớ của Jiraiya, Hokage Đệ tứ chính là cha ruột của Naruto. Series The Movie là các bộ phim lẻ đặc sắc, cực hiếm v0minh tôi phải canh hàng tháng trời mới xong được nửa.

    (2004-2015) 1080p Blu-ray AVC DTS-HD MA 5.1 (ISO) {600 GiB} [​IMG]
    (2004-2015) ViE 720p BluRay FLAC5.1 x264 {100 GiB} (Thuyết Minh)
    [/TD][/TR][/TABLE]
     
    Chỉnh sửa cuối: 1/2/16
  3. v0minh

    v0minh Huyền Thoại

    Tham gia ngày:
    23/12/14
    Bài viết:
    19,560
    Đã được cảm ơn:
    170,742
    Giới tính:
    Nam
    Nghề nghiệp:
    Blogger
    Nơi ở:
    Hải Phòng
    [Hoạt hình] Naruto Shippuden: The Movie 2007 1080p Blu-ray AVC DTS-HD MA 5.1-v0 (ISO) ~ Naruto: Cái chết được báo trước | Junko Takeuchi, Chie Nakamura, Yôichi Masukawa

    [TABLE=align: center][TR][TD=bgcolor: Crimson, align:center]

    Naruto Shippuden: The Movie 2007 1080p Blu-ray AVC DTS-HD MA 5.1-v0 (ISO)



    [/TD][/TR][TR][TD=align: center, bgcolor: #FFFFCC]
    Naruto: Cái chết được báo trước

    {Phụ đề tiếng Việt}

    (Junko Takeuchi, Chie Nakamura, Yôichi Masukawa)

    [​IMG] Ratings: 7.0/10 from 1,863 users


    [/TD][/TR][/TABLE]

    [​IMG]

    Thông tin phim. Click HERE:
    [TABLE=align: center, width: 700][TR][TD=bgcolor: RoyalBlue, align:center]Nội dung phim[/TD][/TR]
    [TR][TD=bgcolor: #FFFFCC]
    Ác quỷ Mouryou đã từng một thời gần như hủy diệt hoàn toàn thế giới , nay lại được hồi sinh một lần nữa. Để giải cứu thế giới khỏi bị hủy diệt, để phong ấn ác quỷ Mouryou chỉ có duy nhất một người làm được. Đó là nữ pháp sư Shion ở Quỷ Quốc với hai sức mạnh đặc biệt, một là phong ấn ác quỷ, hai là tiên đoán được cái chết của người khác. Nhiệm vụ lần này của Naruto là hộ tống bảo vệ nữ pháp sư, nhưng cô ấy lại tiên đoán rằng Naruto sẽ bị chết. Cách duy nhất để thoát được cái chết là phải tránh xa Shion. Thế nhưng khi rời bỏ Shion thì ác quỷ Mouryou với dã tâm độc ác sẽ tìm đến và giết Shion, khi đó thế giới sẽ bị hủy diệt. Naruto đã quyết định sẽ chiến đấu tới cùng, thách thức cả lời tiên đoán về cái chết.

    [/TD][/TR][/TABLE]

    [TABLE=align: center, width: 700][TR][TD=bgcolor: RoyalBlue, align:center]Media Info[/TD][/TR]
    [/TABLE]

    Disc Title: NARUTO_SHIPPUDEN
    Disc Size: 22,339,650,340 bytes
    Protection: AACS
    BD-Java: No
    BDInfo: 0.5.8

    Notes:

    BDINFO HOME:
    Cinema Squid
    http://www.cinemasquid.com/blu-ray/tools/bdinfo

    INCLUDES FORUMS REPORT FOR:
    AVS Forum Blu-ray Audio and Video Specifications Thread
    http://www.avsforum.com/avs-vb/showthread.php?t=1155731


    DISC INFO:

    Disc Title: NARUTO_SHIPPUDEN
    Disc Size: 22,339,650,340 bytes
    Protection: AACS
    BD-Java: No
    BDInfo: 0.5.8

    PLAYLIST REPORT:

    Name: 00000.MPLS
    Length: 1:34:55.690 (h:m:s.ms)
    Size: 22,130,838,144 bytes
    Total Bitrate: 31.08 Mbps

    VIDEO:

    Codec Bitrate Description
    ----- ------- -----------
    MPEG-4 AVC Video 25080 kbps 1080i / 29.970 fps / 16:9 / High Profile 4.1

    AUDIO:

    Codec Language Bitrate Description
    ----- -------- ------- -----------
    DTS-HD Master Audio English 2222 kbps 5.1 / 48 kHz / 2222 kbps / 16-bit (DTS Core: 5.1 / 48 kHz / 768 kbps / 16-bit)
    DTS-HD Master Audio Japanese 2091 kbps 5.1 / 48 kHz / 2091 kbps / 16-bit (DTS Core: 5.1 / 48 kHz / 768 kbps / 16-bit)

    SUBTITLES:

    Codec Language Bitrate Description
    ----- -------- ------- -----------
    Presentation Graphics English 35.205 kbps

    FILES:

    Name Time In Length Size Total Bitrate
    ---- ------- ------ ---- -------------
    00000.M2TS 0:00:00.000 1:34:55.690 22,130,838,144 31,084




    [TABLE=align: center, width: 700][TR][TD=bgcolor: RoyalBlue, align:center]Screenshots[/TD][/TR][/TABLE]

    [​IMG]

    [TABLE=align: center, width: 700][TR][TD=bgcolor: RoyalBlue, align:center]Trailer[/TD][/TR]
    [TR][TD=bgcolor: #FFFFCC]

    [video=youtube;Ttr3KL6mUMc]http://www.youtube.com/watch?v=Ttr3KL6mUMc[/video]​


    [/TD][/TR][/TABLE]

    [TABLE=align: center, width: 700][TR][TD=bgcolor: RoyalBlue, align:center]Phụ Đề[/TD][/TR][TR][TD=align: center, bgcolor: #FFFFCC]

    (đã có bản tiếng Việt)
    http://subscene.com/subtitles/narut...-gekij-ban-naruto-shippden/vietnamese/1217824


    [/TD][/TR][/TABLE]

    [TABLE=align: center, width: 700][TR][TD=bgcolor: RoyalBlue, align:center]Download[/TD][/TR]
    [TR][TD=align: center, bgcolor: #FFFFCC]

    Dung lượng: 20.8 GiB
    Nhấn nút Cảm ơn (dưới chân bài) để thấy link!

    [/TD][/TR][/TABLE]

    [TABLE=align: center, width: 700][TR][TD=bgcolor: RoyalBlue, align:center]Các bản KHÁC[/TD][/TR][TR][TD=bgcolor: #FFFFCC]

    720p:
    Naruto Shippuden: The Movie 2007[COLOR=Red][B] ViE [/B][/COLOR]720p BluRay FLAC5.1 x264 - {3.3 GiB} Fshare | Phụ Đề | Thuyết Minh

    Blu-ray:
    Naruto Shippuden: The Movie 2007 1080p Blu-ray AVC DTS-HD MA 5.1-v0 (ISO) - {20.8 GiB} Fshare | Phụ Đề [​IMG]


    [/TD][/TR][/TABLE]
     
    Chỉnh sửa cuối: 3/2/16
    LuuKy366, manhzzz, hoangtuans and 7 others like this.
  4. v0minh

    v0minh Huyền Thoại

    Tham gia ngày:
    23/12/14
    Bài viết:
    19,560
    Đã được cảm ơn:
    170,742
    Giới tính:
    Nam
    Nghề nghiệp:
    Blogger
    Nơi ở:
    Hải Phòng
    [Hoạt hình] Naruto Shippuden the Movie: The Will of Fire 2009 1080p Blu-ray AVC DTS-HD MA 5.1-v0 (ISO) ~ Naruto: Người Kế Thừa Hỏa Chí | Junko Takeuchi, Chie Nakamura, Satoshi Hino

    [TABLE=align: center][TR][TD=bgcolor: Crimson, align:center]

    Naruto Shippuden the Movie: The Will of Fire 2009 1080p Blu-ray AVC DTS-HD MA 5.1-v0 (ISO)



    [/TD][/TR][TR][TD=align: center, bgcolor: #FFFFCC]
    Naruto: Người Kế Thừa Hỏa Chí

    {Phụ đề tiếng Việt}

    (Junko Takeuchi, Chie Nakamura, Satoshi Hino)

    [​IMG] Ratings: 7.2/10 from 1,000 users


    [/TD][/TR][/TABLE]

    [​IMG]

    Thông tin phim. Click HERE:
    [TABLE=align: center, width: 700][TR][TD=bgcolor: RoyalBlue, align:center]Nội dung phim[/TD][/TR]
    [TR][TD=bgcolor: #FFFFCC]
    Tập phim xoay quanh nguy cơ nổ ra Đại chiến Ninja lần thứ 4 khi các ninja có huyết kế giới hạn ở các làng sương mù, làng đá, làng mây và làng cát bỗng nhiên bắt đầu biến mất. Các quốc gia nghi ngờ làng lá - làng duy nhất không bị ảnh hưởng, đã gây ra tai nạn trên và tung tin đồn về việc Konoha đang có kế hoạch tạo phản. Đồng thời họ điều động quân đội đến biên giới Hỏa Quốc chuẩn bị phát động tấn công. Những người đứng đầu Hỏa Quốc phải chứng minh sự trong sạch của Konoha tìm ra nguyên nhân vụ việc, nếu không họ sẽ phải xóa xổ cả làng để giữ hòa bình thế giới.

    [/TD][/TR][/TABLE]

    [TABLE=align: center, width: 700][TR][TD=bgcolor: RoyalBlue, align:center]Media Info[/TD][/TR]
    [/TABLE]

    DISC INFO:

    Disc Title: NARUTO SHIPPUDEN WILL OF FIRE
    Disc Size: 32,598,130,054 bytes
    Protection: AACS
    BD-Java: No
    BDInfo: 0.5.8

    PLAYLIST REPORT:

    Name: 00014.MPLS
    Length: 1:35:46.615 (h:m:s.ms)
    Size: 15,555,330,048 bytes
    Total Bitrate: 21.65 Mbps

    Angle 1 Length: 1:35:41.652 (h:m:s.ms) / 1:35:46.615 (h:m:s.ms)
    Angle 1 Size: 15,637,856,256 bytes / 15,641,327,616 bytes
    Angle 1 Total Bitrate: 21.79 Mbps / 21.77 Mbps

    All Angles Length: 3:11:28.268 (h:m:s.ms)
    All Angles Size: 31,193,186,304 bytes
    All Angles Bitrate: 21.72 Mbps

    VIDEO:

    Codec Bitrate Description
    ----- ------- -----------
    MPEG-4 AVC Video 16801 kbps 1080p / 23.976 fps / 16:9 / High Profile 4.1
    MPEG-4 AVC Video (1) 16915 (16930) kbps 1080p / 23.976 fps / 16:9 / High Profile 4.1

    AUDIO:

    Codec Language Bitrate Description
    ----- -------- ------- -----------
    DTS-HD Master Audio English 1708 kbps 2.0 / 48 kHz / 1708 kbps / 16-bit (DTS Core: 2.0 / 48 kHz / 1509 kbps / 16-bit)
    DTS-HD Master Audio Japanese 1683 kbps 2.0 / 48 kHz / 1683 kbps / 16-bit (DTS Core: 2.0 / 48 kHz / 1509 kbps / 16-bit)

    SUBTITLES:

    Codec Language Bitrate Description
    ----- -------- ------- -----------
    Presentation Graphics English 25.798 kbps

    FILES:

    Name Time In Length Size Total Bitrate
    ---- ------- ------ ---- -------------
    00012.M2TS 0:00:00.000 1:35:41.652 15,551,858,688 21,669
    00000.M2TS (1) 0:00:00.000 1:35:41.652 15,637,856,256 21,789
    00011.M2TS 1:35:41.652 0:00:04.963 3,471,360 5,595

    [​IMG]
    [​IMG]
    [​IMG]




    [TABLE=align: center, width: 700][TR][TD=bgcolor: RoyalBlue, align:center]Screenshots[/TD][/TR][/TABLE]

    [​IMG]
    [​IMG]
    [​IMG]
    [​IMG]
    [​IMG]
    [​IMG]
    [​IMG]
    [​IMG]
    [​IMG]
    [​IMG]
    [​IMG]
    [​IMG]
    [​IMG]

    [TABLE=align: center, width: 700][TR][TD=bgcolor: RoyalBlue, align:center]Trailer[/TD][/TR]
    [TR][TD=bgcolor: #FFFFCC]

    [video=youtube;5LDHxfKZMpw]http://www.youtube.com/watch?v=5LDHxfKZMpw[/video]​


    [/TD][/TR][/TABLE]

    [TABLE=align: center, width: 700][TR][TD=bgcolor: RoyalBlue, align:center]Phụ Đề[/TD][/TR][TR][TD=align: center, bgcolor: #FFFFCC]

    (đã có bản tiếng Việt)
    http://subscene.com/subtitles/narut...n-hi-no-ishi-wo-tsugu-mono/vietnamese/1227186


    [/TD][/TR][/TABLE]

    [TABLE=align: center, width: 700][TR][TD=bgcolor: RoyalBlue, align:center]Download[/TD][/TR]
    [TR][TD=align: center, bgcolor: #FFFFCC]

    Dung lượng: 30.4 GiB
    Nhấn nút Cảm ơn (dưới chân bài) để thấy link!

    [/TD][/TR][/TABLE]

    [TABLE=align: center, width: 700][TR][TD=bgcolor: RoyalBlue, align:center]Các bản KHÁC[/TD][/TR][TR][TD=bgcolor: #FFFFCC]

    720p:
    Naruto Shippuden the Movie: The Will of Fire 2009 ViE 720p BluRay FLAC5.1 x264 - {3 GiB} Fshare | Phụ Đề | Thuyết Minh

    Blu-ray:
    Naruto Shippuden the Movie: The Will of Fire 2009 1080p Blu-ray AVC DTS-HD MA 5.1-v0 (ISO) - {30.4 GiB} Fshare | Phụ Đề [​IMG]


    [/TD][/TR][/TABLE]
     
    Chỉnh sửa cuối: 3/2/16
    LuuKy366, manhzzz, hoangtuans and 9 others like this.
  5. v0minh

    v0minh Huyền Thoại

    Tham gia ngày:
    23/12/14
    Bài viết:
    19,560
    Đã được cảm ơn:
    170,742
    Giới tính:
    Nam
    Nghề nghiệp:
    Blogger
    Nơi ở:
    Hải Phòng
    [Hoạt hình] Naruto Shippuden the Movie: Road to Ninja 2012 1080p Blu-ray AVC DTS-HD MA 5.1-v0 (ISO) ~ Naruto: Con Đường Nhẫn Giả | Junko Takeuchi, Chie Nakamura, Toshiyuki Morikawa

    [TABLE=align: center][TR][TD=bgcolor: Crimson, align:center]

    Naruto Shippuden the Movie: Road to Ninja 2012 1080p Blu-ray AVC DTS-HD MA 5.1-v0 (ISO)



    [/TD][/TR][TR][TD=align: center, bgcolor: #FFFFCC]
    Naruto: Con Đường Nhẫn Giả

    {Phụ đề tiếng Việt}

    (Junko Takeuchi, Chie Nakamura, Toshiyuki Morikawa)

    [​IMG] Ratings: 7.8/10 from 2,466 users


    [/TD][/TR][/TABLE]

    [​IMG]

    Thông tin phim. Click HERE:
    [TABLE=align: center, width: 700][TR][TD=bgcolor: RoyalBlue, align:center]Nội dung phim[/TD][/TR]
    [TR][TD=bgcolor: #FFFFCC]
    Naruto và Sakura đang chơi trong công viên thì gặp Madara, thành viên tổ chức Akatsuki, bắt vào trong một thế giới khác, song song với thế giới Naruto đang sống. Ở thế giới này tất cả mọi người đều thay đổi và Naruto không có tên như cũ mà bị gọi là Memma. Tính cách mọi người thay đổi và cái bất ngờ nhất là bố mẹ Naruto vẫn còn sống và không làm Hokage mà thay vào đó là bố của Sakura làm Hokage và đã hi sinh. Cái bất ngờ hơn nữa là Akatsuki lại là tổ chức đánh thuê. Trong thế giới này Naruto phải đánh lại với chính mình là Memma và hợp sức với Cửu Vĩ.

    [/TD][/TR][/TABLE]

    [TABLE=align: center, width: 700][TR][TD=bgcolor: RoyalBlue, align:center]Media Info[/TD][/TR]
    [/TABLE]

    DISC INFO:

    Disc Title: NARUTO MOVIE ROAD TO NINJA
    Disc Size: 23,017,607,845 bytes
    Protection: AACS
    BD-Java: No
    BDInfo: 0.5.8

    PLAYLIST REPORT:

    Name: 00014.MPLS
    Length: 1:50:00.385 (h:m:s.ms)
    Size: 18,394,822,656 bytes
    Total Bitrate: 22.30 Mbps

    VIDEO:

    Codec Bitrate Description
    ----- ------- -----------
    MPEG-4 AVC Video 13031 kbps 1080p / 23.976 fps / 16:9 / High Profile 4.1

    AUDIO:

    Codec Language Bitrate Description
    ----- -------- ------- -----------
    DTS-HD Master Audio English 2003 kbps 5.1 / 48 kHz / 2003 kbps / 16-bit (DTS Core: 5.1 / 48 kHz / 1509 kbps / 16-bit)
    DTS-HD Master Audio Japanese 2055 kbps 5.1 / 48 kHz / 2055 kbps / 16-bit (DTS Core: 5.1 / 48 kHz / 1509 kbps / 16-bit)
    DTS-HD Master Audio English 1633 kbps 2.0 / 48 kHz / 1633 kbps / 16-bit (DTS Core: 2.0 / 48 kHz / 1509 kbps / 16-bit)
    DTS-HD Master Audio Japanese 1630 kbps 2.0 / 48 kHz / 1630 kbps / 16-bit (DTS Core: 2.0 / 48 kHz / 1509 kbps / 16-bit)

    SUBTITLES:

    Codec Language Bitrate Description
    ----- -------- ------- -----------
    Presentation Graphics English 25.112 kbps

    FILES:

    Name Time In Length Size Total Bitrate
    ---- ------- ------ ---- -------------
    00012.M2TS 0:00:00.000 1:49:55.422 18,391,351,296 22,308
    00011.M2TS 1:49:55.422 0:00:04.963 3,471,360 5,595

    [​IMG]
    [​IMG]
    [​IMG]




    [TABLE=align: center, width: 700][TR][TD=bgcolor: RoyalBlue, align:center]Screenshots[/TD][/TR][/TABLE]

    [​IMG] [​IMG] [​IMG]
    [​IMG] [​IMG] [​IMG]

    [​IMG] [​IMG] [​IMG] [​IMG]
    [​IMG] [​IMG] [​IMG] [​IMG]

    [TABLE=align: center, width: 700][TR][TD=bgcolor: RoyalBlue, align:center]Trailer[/TD][/TR]
    [TR][TD=bgcolor: #FFFFCC]

    http://https://www.youtube.com/watch?v=4fvfOWbdn_A​


    [/TD][/TR][/TABLE]

    [TABLE=align: center, width: 700][TR][TD=bgcolor: RoyalBlue, align:center]Phụ Đề[/TD][/TR][TR][TD=align: center, bgcolor: #FFFFCC]

    (đã có bản tiếng Việt)
    http://subscene.com/subtitles/naruto-the-movie-road-to-ninja/vietnamese/1235541


    [/TD][/TR][/TABLE]

    [TABLE=align: center, width: 700][TR][TD=bgcolor: RoyalBlue, align:center]Download[/TD][/TR]
    [TR][TD=align: center, bgcolor: #FFFFCC]

    Dung lượng: 21.4 GiB
    Nhấn nút Cảm ơn (dưới chân bài) để thấy link!

    [/TD][/TR][/TABLE]

    [TABLE=align: center, width: 700][TR][TD=bgcolor: RoyalBlue, align:center]Các bản KHÁC[/TD][/TR][TR][TD=bgcolor: #FFFFCC]

    720p:
    Naruto Shippuden the Movie: Road to Ninja 2012 ViE 720p BluRay FLAC5.1 x264 - {2.4 GiB} Fshare | Phụ Đề | Thuyết Minh

    Blu-ray:
    Naruto Shippuden the Movie: Road to Ninja 2012 1080p Blu-ray AVC DTS-HD MA 5.1-v0 (ISO) - {21.4 GiB} Fshare | Phụ Đề [​IMG]


    [/TD][/TR][/TABLE]
     
    Chỉnh sửa cuối: 3/2/16
  6. v0minh

    v0minh Huyền Thoại

    Tham gia ngày:
    23/12/14
    Bài viết:
    19,560
    Đã được cảm ơn:
    170,742
    Giới tính:
    Nam
    Nghề nghiệp:
    Blogger
    Nơi ở:
    Hải Phòng
    [Hoạt hình] Naruto the Movie: Ninja Clash in the Land of Snow 2004 1080p Blu-ray AVC DTS-HD MA 5.1-v0 (ISO) ~ Naruto: Cuộc chiến ở Tuyết Quốc | Junko Takeuchi, Chie Nakamura, Noriaki Sugiyama

    [TABLE=align: center][TR][TD=bgcolor: Crimson, align:center]

    Naruto the Movie: Ninja Clash in the Land of Snow 2004 1080p Blu-ray AVC DTS-HD MA 5.1-v0 (ISO)



    [/TD][/TR][TR][TD=align: center, bgcolor: #FFFFCC]
    Naruto: Cuộc chiến ở Tuyết Quốc

    {Phụ đề tiếng Việt}

    (Junko Takeuchi, Chie Nakamura, Noriaki Sugiyama)

    [​IMG] Ratings: 6.7/10 from 3,026 users


    [/TD][/TR][/TABLE]

    [​IMG]

    Thông tin phim. Click HERE:
    [TABLE=align: center, width: 700][TR][TD=bgcolor: RoyalBlue, align:center]Nội dung phim[/TD][/TR]
    [TR][TD=bgcolor: #FFFFCC]
    Yukie Fujikaze là một ngôi sao đang lên của bộ phim ăn khách "The Adventures of Princess Gale". Khi cả đoàn làm phim đề nghị tới làng Ninja Tuyết để thực hiện một phân đoạn, Yukie bất ngờ từ chối và bỏ trốn. Naruto và đội Ninja dưới sự dẫn dắt của Kakashi tham gia vào một nhiệm vụ mới không kém phần hấp dẫn: tìm ra tung tích của nữ diễn viên nổi tiếng này và đưa cô trở lại đoàn. Tuy nhiên cả nhóm phát hiện ra Yukie đang che dấu một bí mật về quá khứ của mình có liên quan đến làng Tuyết.

    [/TD][/TR][/TABLE]

    [TABLE=align: center, width: 700][TR][TD=bgcolor: RoyalBlue, align:center]Media Info[/TD][/TR]
    [/TABLE]

    DISC INFO:

    Disc Title: NARUTOSNOW
    Disc Size: 30,747,558,933 bytes
    Protection: AACS
    BD-Java: No
    BDInfo: 0.5.8

    PLAYLIST REPORT:

    Name: 00003.MPLS
    Length: 1:22:37.952 (h:m:s.ms)
    Size: 26,809,331,712 bytes
    Total Bitrate: 43.26 Mbps

    VIDEO:

    Codec Bitrate Description
    ----- ------- -----------
    MPEG-4 AVC Video 36982 kbps 1080p / 23.976 fps / 16:9 / High Profile 4.1

    AUDIO:

    Codec Language Bitrate Description
    ----- -------- ------- -----------
    DTS-HD Master Audio Japanese 2183 kbps 5.1 / 48 kHz / 2183 kbps / 16-bit (DTS Core: 5.1 / 48 kHz / 1509 kbps / 16-bit)
    LPCM Audio Japanese 1536 kbps 2.0 / 48 kHz / 1536 kbps / 16-bit

    SUBTITLES:

    Codec Language Bitrate Description
    ----- -------- ------- -----------
    Presentation Graphics Japanese 220.151 kbps

    FILES:

    Name Time In Length Size Total Bitrate
    ---- ------- ------ ---- -------------
    00011.M2TS 0:00:00.000 1:22:37.952 26,809,331,712 43,259




    [TABLE=align: center, width: 700][TR][TD=bgcolor: RoyalBlue, align:center]Screenshots[/TD][/TR][/TABLE]

    [​IMG] [​IMG] [​IMG]
    [​IMG] [​IMG] [​IMG]
    [​IMG] [​IMG] [​IMG]
    [​IMG] [​IMG] [​IMG]

    [TABLE=align: center, width: 700][TR][TD=bgcolor: RoyalBlue, align:center]Trailer[/TD][/TR]
    [TR][TD=bgcolor: #FFFFCC]

    [video=youtube;WNs0lbfbPi0]http://www.youtube.com/watch?v=WNs0lbfbPi0[/video]​


    [/TD][/TR][/TABLE]

    [TABLE=align: center, width: 700][TR][TD=bgcolor: RoyalBlue, align:center]Phụ Đề[/TD][/TR][TR][TD=align: center, bgcolor: #FFFFCC]

    (đã có bản tiếng Việt)
    http://subscene.com/subtitles/narut...naruto-daikatsugeki-yukihime-ninpch-dattebayo


    [/TD][/TR][/TABLE]

    [TABLE=align: center, width: 700][TR][TD=bgcolor: RoyalBlue, align:center]Download[/TD][/TR]
    [TR][TD=align: center, bgcolor: #FFFFCC]

    Dung lượng: 28.6 GiB
    Nhấn nút Cảm ơn (dưới chân bài) để thấy link!

    [/TD][/TR][/TABLE]

    [TABLE=align: center, width: 700][TR][TD=bgcolor: RoyalBlue, align:center]Các bản KHÁC[/TD][/TR][TR][TD=bgcolor: #FFFFCC]

    720p:
    Naruto the Movie: Ninja Clash in the Land of Snow 2004 ViE 720p BluRay FLAC5.1 x264 - {2.3 GiB} Fshare | Phụ Đề | Thuyết Minh

    Blu-ray:
    Naruto the Movie: Ninja Clash in the Land of Snow 2004 1080p Blu-ray AVC DTS-HD MA 5.1-v0 (ISO) - {28.6 GiB} Fshare | Phụ Đề [​IMG]


    [/TD][/TR][/TABLE]

    [TABLE][TR][TD=width: 120, bgcolor: pink, align:center]

    [​IMG]
    Ratings: 7.5/10
    - Phụ Đề -
    [/TD] [TD=bgcolor: #FFFFCC]
    Naruto the Movie collection - Tổng hợp Naruto phim truyện
    (Uzumaki Naruto)

    Naruto là một ninja thuộc về làng Lá với khát vọng được trở thành người lãnh đạo làng, Hokage. Dân làng xa lánh Naruto vì Cửu Vĩ, một sinh vật tàn bạo đã tấn công làng Lá, được phong ấn bên trong cơ thể cậu ta. Tuy vậy, Naruto vẫn giữ được tính cách vui vẻ và ồn ào, giúp cậu ta kết bạn với vài ninja làng Lá khác trong truyện, cũng như những ninja từ làng khác. Cậu ta đặc biệt có mối quan hệ gần gũi với Uchiha Sasuke, một trong những ninja cùng nhóm 7, và đối xử với cậu như anh em. Trong giai đoạn sau, phỏng theo trí nhớ của Jiraiya, Hokage Đệ tứ chính là cha ruột của Naruto. Series The Movie là các bộ phim lẻ đặc sắc, cực hiếm v0minh tôi phải canh hàng tháng trời mới xong được nửa.

    (2004-2015) 1080p Blu-ray AVC DTS-HD MA 5.1 (ISO) {600 GiB} [​IMG]
    (2004-2015) ViE 720p BluRay FLAC5.1 x264 {100 GiB} (Thuyết Minh)
    [/TD][/TR][/TABLE]



    __________________________________________________ ________________________________
    [​IMG]
    KHO PHiM HD, BluRay - Update hàng ngày | Xuân Bính thân 2016
    Series/Collection | Phim Tài Liệu | HOT/Bom Tân | Blu-ray/Remux | Asia | US-EU | Cô Trang | Sniper | Lông tiêng | VietNam
    Incest | LGBT | ROCK/DemoWorld | Ghibli Studio | New year/Christmas | Van Damme | Bruce Lee | Diep Van | Hoang Phi Hong
    Star Wars | 007 | Mad Max | Fast and Furious | The Hunger Games
    __________________________________________________ ________________________________​
     
    Chỉnh sửa cuối: 1/2/16
    manhzzz, hoangtuans, misawa and 7 others like this.
  7. v0minh

    v0minh Huyền Thoại

    Tham gia ngày:
    23/12/14
    Bài viết:
    19,560
    Đã được cảm ơn:
    170,742
    Giới tính:
    Nam
    Nghề nghiệp:
    Blogger
    Nơi ở:
    Hải Phòng
    [Hoạt hình] The Last: Naruto the Movie 2014 1080p Blu-ray AVC DTS-HD MA 5.1 (ISO) ~ Naruto: Trận chiến cuối cùng | Junko Takeuchi, Nana Mizuki, Jun Fukuyama

    [TABLE=align: center][TR][TD=bgcolor: Crimson, align:center]

    The Last: Naruto the Movie 2014 1080p Blu-ray AVC DTS-HD MA 5.1 (ISO)




    [/TD][/TR][TR][TD=align: center, bgcolor: #FFFFCC]
    Naruto: Trận chiến cuối cùng

    {Phụ đề tiếng Việt}

    (Junko Takeuchi, Nana Mizuki, Jun Fukuyama)

    [​IMG] Ratings: 8.0/10 from 3,625 users


    [/TD][/TR][/TABLE]

    [​IMG]

    Thông tin phim. Click HERE:
    [TABLE=align: center, width: 700][TR][TD=bgcolor: RoyalBlue, align:center]Nội dung phim[/TD][/TR]
    [TR][TD=bgcolor: #FFFFCC]
    Là tựa Movie thứ 7 trong loạt series Movie Naruto Shippuuden, cũng là movie thứ 10 thuộc siêu phẩm Naruto. Câu chuyện lấy bối cảnh 2 năm sau khi kết thúc cuộc Đại Chiến Ninja từ manga. Toneri, hậu nhân của Otsutsuki Hamura, cư ngụ ở mặt trăng suốt mấy trăm năm qua, nay tìm xuống Trái Đất với ý định cầu hôn công chúa Bạch Nhãn Hinata, đưa về cung trăng trước khi ra tay hủy diệt Trái Đất vì Thiên Lệnh Hamura để lại. Naruto khi đó đã cùng những người bạn của mình lên đường cứu Hinata. Khoảng thời gian này, cậu dần nhận ra tình cảm mà Hinata đã dành cho mình và bắt đầu thích cô.​

    [/TD][/TR][/TABLE]

    [TABLE=align: center, width: 700][TR][TD=bgcolor: RoyalBlue, align:center]Trailer[/TD][/TR]
    [TR][TD=bgcolor: #FFFFCC]

    [video=youtube;q94Nr363aWQ]http://www.youtube.com/watch?v=q94Nr363aWQ[/video]​


    [/TD][/TR][/TABLE]

    [TABLE=align: center, width: 700][TR][TD=bgcolor: RoyalBlue, align:center]Media Info[/TD][/TR]
    [/TABLE]

    DISC INFO:

    Disc Title: Naruto_TheLast
    Disc Size: 43,413,534,503 bytes
    Protection: AACS
    BD-Java: No
    BDInfo: 0.5.8

    PLAYLIST REPORT:

    Name: 00000.MPLS
    Length: 1:52:03.508 (h:m:s.ms)
    Size: 38,255,192,064 bytes
    Total Bitrate: 45.52 Mbps

    VIDEO:

    Codec Bitrate Description
    ----- ------- -----------
    MPEG-4 AVC Video 37989 kbps 1080p / 23.976 fps / 16:9 / High Profile 4.1

    AUDIO:

    Codec Language Bitrate Description
    ----- -------- ------- -----------
    DTS-HD Master Audio Japanese 2801 kbps 5.1 / 48 kHz / 2801 kbps / 24-bit (DTS Core: 5.1 / 48 kHz / 1509 kbps / 24-bit)
    LPCM Audio Japanese 2304 kbps 2.0 / 48 kHz / 2304 kbps / 24-bit

    SUBTITLES:

    Codec Language Bitrate Description
    ----- -------- ------- -----------
    Presentation Graphics Japanese 171.535 kbps

    FILES:

    Name Time In Length Size Total Bitrate
    ---- ------- ------ ---- -------------
    00000.M2TS 0:00:00.000 0:51:59.116 17,667,287,040 45,314
    00001.M2TS 0:51:59.116 1:00:04.392 20,587,905,024 45,695




    [TABLE=align: center, width: 700][TR][TD=bgcolor: RoyalBlue, align:center]Screenshots[/TD][/TR][/TABLE]

    [​IMG]
    [​IMG]
    [​IMG]
    [​IMG]
    [​IMG]
    [​IMG]
    [​IMG]


    [TABLE=align: center, width: 700][TR][TD=bgcolor: RoyalBlue, align:center]Link download[/TD][/TR]
    [TR][TD=align: center, bgcolor: #FFFFCC]

    Dung lượng: 40.6 GiB (1 link)

    [​IMG]
    Nhấn nút Cảm ơn (dưới chân bài) để thấy link!



    [/TD][/TR][/TABLE]

    [TABLE=align: center, width: 700][TR][TD=bgcolor: RoyalBlue, align:center]Phụ Đề[/TD][/TR][TR][TD=align: center, bgcolor: #FFFFCC]

    (đã có bản tiếng Việt)
    http://subscene.com/subtitles/the-last-naruto-the-movie


    [/TD][/TR][/TABLE]

    [TABLE=align: center, width: 700][TR][TD=bgcolor: RoyalBlue, align:center]Các bản encode của phim[/TD][/TR][TR][TD=bgcolor: #FFFFCC]

    1080p:
    The Last: Naruto the Movie 2014 ViE 1080p BluRay DTS x264-HDS - {6.8 GiB} Fshare | Phụ Đề | Thuyết Minh

    720p:
    The Last: Naruto the Movie 2014 720p BluRay DD5.1 x264-CtrlHD - {4.3 GiB} Fshare | Phụ Đề [​IMG]

    Blu-ray:
    The Last: Naruto the Movie 2014 1080p Blu-ray AVC DTS-HD MA 5.1 (ISO) - {40.6 GiB} Fshare | Phụ Đề [​IMG]


    [/TD][/TR][/TABLE]
     
    Chỉnh sửa cuối: 5/1/16
  8. v0minh

    v0minh Huyền Thoại

    Tham gia ngày:
    23/12/14
    Bài viết:
    19,560
    Đã được cảm ơn:
    170,742
    Giới tính:
    Nam
    Nghề nghiệp:
    Blogger
    Nơi ở:
    Hải Phòng
    Chỉnh sửa cuối: 8/11/15
  9. v0minh

    v0minh Huyền Thoại

    Tham gia ngày:
    23/12/14
    Bài viết:
    19,560
    Đã được cảm ơn:
    170,742
    Giới tính:
    Nam
    Nghề nghiệp:
    Blogger
    Nơi ở:
    Hải Phòng
    Ðề: [Phiêu lưu|Blu-ray ISO] Naruto the Movie collection (2004-2015) 1080p Blu-ray AVC DTS-HD MA 5.1 (ISO) ~ Tổng hợp Naruto phim truyện | Uzumaki Naruto

    02: Naruto the Movie 2: Legend of the Stone of Gelel (2005)
     
  10. v0minh

    v0minh Huyền Thoại

    Tham gia ngày:
    23/12/14
    Bài viết:
    19,560
    Đã được cảm ơn:
    170,742
    Giới tính:
    Nam
    Nghề nghiệp:
    Blogger
    Nơi ở:
    Hải Phòng
    [Hoạt hình] Naruto Shippuden The Movie: Bonds 2008 1080p Blu-ray AVC DTS-HD MA 5.1-v0 (ISO) ~ Naruto Shippuden: Nhiệm vụ bí mật | Junko Takeuchi, Chie Nakamura, Noriaki Sugiyama

    [TABLE=align: center][TR][TD=bgcolor: Crimson, align:center]

    Naruto Shippuden The Movie: Bonds 2008 1080p Blu-ray AVC DTS-HD MA 5.1-v0 (ISO)



    [/TD][/TR][TR][TD=align: center, bgcolor: #FFFFCC]
    Naruto Shippuden: Nhiệm vụ bí mật

    {Phụ đề tiếng Việt}

    (Junko Takeuchi, Chie Nakamura, Noriaki Sugiyama)

    [​IMG] Ratings: 7.0/10 from 1,619 users


    [/TD][/TR][/TABLE]

    [​IMG]

    Thông tin phim. Click HERE:
    [TABLE=align: center, width: 700][TR][TD=bgcolor: RoyalBlue, align:center]Nội dung phim[/TD][/TR]
    [TR][TD=bgcolor: #FFFFCC]
    Một nhóm ninja bí ẩn đến từ Không Quốc (Sora no Kuni) được gọi là Sora-nin đã bất ngờ tấn công Konoha. Họ là những thành phần còn sót lại của Không Quốc sau khi nơi đó gần như bị huỷ diệt bởi Konoha trong trận Ninja đại chiến lần hai. Mục tiêu lần này của bọn họ là Hoả Quốc (Land of Fire), hay nói chính xác hơn, thì chính là nhằm vào Konoha để trả thù rửa hận.Họ bắt đầu tấn công vào Konoha với những Sora-nin bay lượn trên không nhờ các thiết bị cơ khí có cánh và bắt đầu đánh bom vào làng, tạo nên cảnh tượng hỗn loạn vô cùng. Cùng lúc đó có một cậu bé đã vượt qua quãng đường rất dài để đến được Konoha, cậu nói làng của cậu đã bị tấn công và giờ thì cậu đang tìm người thầy hiện ở ngay tại Konoha để đưa ông ấy về chữa thương cho dân làng cậu.


    Naruto Shippuden the Movie: Nhiệm vụ bí mật (劇場版 NARUTO−ナルト− 疾風伝 絆 Gekijōban Naruto Shippūden: Kizuna?) là bộ phim Naruto thứ 5 và phim thứ hai trong Naruto: Shippūden.
    [​IMG]

    Làng Konoha bị tấn công bởi một nhóm ninja bí ẩn bay lượn trên bầu trời, liệu một cuộc đại chiến Ninaj thứ 4 sẽ nổ ra? Trong khi đó, Sasuke đã xuất hiện trở lại với một nhiệm vụ bí mật cho Orochimaru. Naruto cũng nhận được nhiệm vụ đi điều tra vụ tấn công và hai người đã gặp nhau. Điều gì sẽ xảy ra sau bao nhiêu năm tháng tìm kiếm Sasuke của Naruto?

    [​IMG]

    Trên đường đi thực hiện nhiệm vụ cùng với Sakura, Hinata, Thần y Shinou và Amaru dần dần hé lộ chân tướng, bí mật khinh khủng của Không quốc "Pháo đài Đại đế quốc" có sức mạnh hủy diệt. Shinou đã đội lớp thần y để đi thực hiện dã tâm của mình là bá chủ thế giới. Để hoàn thành dã tâm đó hắn phải mượn sức mạnh của Reibi - Chakra Bóng tối. Reibi lớn mạnh bằng sự tuyệt vọng của con người.


    [​IMG]

    Shinou đã lợi dụng sự yêu thương của Amura để đưa Amura vào trong bóng tối của sự tuyệt vọng. Tội cho Amura thơ ngây, trong sáng hết lòng yêu thương thầy của mình. Thấy Reibi lớn mạnh hắn càng sung sướng tột cùng khi dã tâm của hắn càng đến gần, hắn là một dã nhân đội lớp thần y cứu người.


    [​IMG]

    Trong lúc Naruto phải đối mặt với sống chết thì đội của thầy Kakashi cũng phải tìm cách ngăn chặn sự tấn công của nhóm ninja bí ẩn vào konoha.
    Phim diễn biến hết sức hài hòa và dẫn dắt người xem cho đến cuối phim mà không muốn rời mắt. Sự hấp dẫn của phim không phải ở kỹ xảo, không phải các thuật ninja các trận đánh đẹp mắt mà phim còn hấp dẫn bởi cốt truyện, ý nghĩa truyền tải "Con người tồn tại được bởi chính sự yêu thương, tin tưởng và sẽ vượt qua tất cả nếu có niềm tin".


    [​IMG]

    Thông tin phim
    Tựa tiếng Việt: Naruto Shippuuden: Nhiệm Vụ Bí Mật
    Tựa tiếng Anh: Naruto Shippuuden: Bonds
    Đạo diễn: Muratachi Masahiko, Sugiyama Noriaki
    Sản xuất: Studio Pierrot
    Âm nhạc: Takanashi Yasuharu
    Diễn viên: Takeuchi Junko, Sugiyama Noriaki, Nakamura Chie, Mizuki Nana
    Điểm D2M: 7.5/10
    Thời lượng: 93 phút
    Năm phát hành: 2008
    Doanh thu: ¥1,160,000,000
    Phát sóng trên D2M: 10 giờ, ngày 11/09/2015
    [/TD][/TR][/TABLE]

    [TABLE=align: center, width: 700][TR][TD=bgcolor: RoyalBlue, align:center]Media Info[/TD][/TR]
    [/TABLE]

    DISC INFO:

    Disc Title: BONDS
    Disc Size: 35,079,769,402 bytes
    Protection: AACS
    BD-Java: No
    BDInfo: 0.5.8

    PLAYLIST REPORT:

    Name: 00000.MPLS
    Length: 1:33:23.514 (h:m:s.ms)
    Size: 31,144,445,952 bytes
    Total Bitrate: 44.46 Mbps

    Angle 1 Length: 0:06:17.418 (h:m:s.ms) / 1:33:23.514 (h:m:s.ms)
    Angle 1 Size: 2,233,085,952 bytes / 31,143,714,816 bytes
    Angle 1 Total Bitrate: 47.33 Mbps / 44.46 Mbps

    All Angles Length: 1:39:40.933 (h:m:s.ms)
    All Angles Size: 33,377,531,904 bytes
    All Angles Bitrate: 44.65 Mbps

    VIDEO:

    Codec Bitrate Description
    ----- ------- -----------
    MPEG-4 AVC Video 33964 kbps 1080p / 23.976 fps / 16:9 / High Profile 4.1
    MPEG-4 AVC Video (1) 2288 (33965) kbps 1080p / 23.976 fps / 16:9 / High Profile 4.1

    AUDIO:

    Codec Language Bitrate Description
    ----- -------- ------- -----------
    DTS-HD Master Audio English 4027 kbps 5.1 / 48 kHz / 4027 kbps / 24-bit (DTS Core: 5.1 / 48 kHz / 768 kbps / 24-bit)
    DTS-HD Master Audio Japanese 4130 kbps 5.1 / 48 kHz / 4130 kbps / 24-bit (DTS Core: 5.1 / 48 kHz / 1509 kbps / 24-bit)

    SUBTITLES:

    Codec Language Bitrate Description
    ----- -------- ------- -----------
    Presentation Graphics English 21.942 kbps

    [​IMG] [​IMG] [​IMG]




    [TABLE=align: center, width: 700][TR][TD=bgcolor: RoyalBlue, align:center]Screenshots[/TD][/TR][/TABLE]

    [​IMG] [​IMG]
    [​IMG] [​IMG]
    [​IMG] [​IMG]

    [​IMG]

    [TABLE=align: center, width: 700][TR][TD=bgcolor: RoyalBlue, align:center]Trailer[/TD][/TR]
    [TR][TD=bgcolor: #FFFFCC]

    [video=youtube;FuoJ5r2XyPI]http://www.youtube.com/watch?v=FuoJ5r2XyPI[/video]​


    [/TD][/TR][/TABLE]

    [TABLE=align: center, width: 700][TR][TD=bgcolor: RoyalBlue, align:center]Phụ Đề[/TD][/TR][TR][TD=align: center, bgcolor: #FFFFCC]

    (đã có bản tiếng Việt)
    http://subscene.com/subtitles/naruto-shippuden-movie-2-bonds-naruto/vietnamese/1243257


    [/TD][/TR][/TABLE]

    [TABLE=align: center, width: 700][TR][TD=bgcolor: RoyalBlue, align:center]Download[/TD][/TR]
    [TR][TD=align: center, bgcolor: #FFFFCC]

    Dung lượng: 32.7 GiB
    Nhấn nút Cảm ơn (dưới chân bài) để thấy link!

    [/TD][/TR][/TABLE]

    [TABLE=align: center, width: 700][TR][TD=bgcolor: RoyalBlue, align:center]Các bản KHÁC[/TD][/TR][TR][TD=bgcolor: #FFFFCC]

    720p:
    Naruto Shippuden The Movie: Bonds 2008 ViE 720p BluRay FLAC5.1 x264 - {3.1 GiB} Fshare | Phụ Đề | Thuyết Minh

    Blu-ray:
    Naruto Shippuden The Movie: Bonds 2008 1080p Blu-ray AVC DTS-HD MA 5.1-v0 (ISO) - {32.7 GiB} Fshare | Phụ Đề [​IMG]


    [/TD][/TR][/TABLE]
     
    Chỉnh sửa cuối: 3/2/16
  11. v0minh

    v0minh Huyền Thoại

    Tham gia ngày:
    23/12/14
    Bài viết:
    19,560
    Đã được cảm ơn:
    170,742
    Giới tính:
    Nam
    Nghề nghiệp:
    Blogger
    Nơi ở:
    Hải Phòng
    [Hoạt hình] Naruto Shippuden: The Lost Tower 2010 1080p Blu-ray AVC DTS-HD MA 5.1-v0 (ISO) ~ Tòa Tháp Bị Lãng Quên | Junko Takeuchi, Chie Nakamura, Satoshi Hino

    [TABLE=align: center][TR][TD=bgcolor: Crimson, align:center]

    Naruto Shippuden: The Lost Tower 2010 1080p Blu-ray AVC DTS-HD MA 5.1-v0 (ISO)



    [/TD][/TR][TR][TD=align: center, bgcolor: #FFFFCC]
    Tòa Tháp Bị Lãng Quên

    {Phụ đề tiếng Việt}

    (Junko Takeuchi, Chie Nakamura, Satoshi Hino)

    [​IMG] Ratings: 6.9/10 from 801 users


    [/TD][/TR][/TABLE]

    [​IMG]

    Thông tin phim. Click HERE:
    [TABLE=align: center, width: 700][TR][TD=bgcolor: RoyalBlue, align:center]Nội dung phim[/TD][/TR]
    [TR][TD=bgcolor: #FFFFCC]
    Được giao nhiệm vụ một để đi bắt Mukade, một missing-nin (ninja bỏ trốn). Uzumaki Naruto đc sắp đặt vào di tích lịch sử vẻ vang đã bị tàn phá: Ouran, nơi Naruto truy đuổi các ninja đang làm việc cho Mukade và Mukade. Mục tiêu của Mukade đã được tiết lộ là để có một leyline hoạt động bên trong những sự tàn phá và hắn sẽ giải phóng sức mạnh của leyline, gây ra một ánh sáng để bao bọc Naruto và gửi Nar vào quá khứ, 20 năm trước khi mọi chuyện bắt đầu. Khi Naruto thức dậy trong quá khứ, Nar đã đc tiếp xúc, nói chuyện và chiến đấu cùng Người Cha Vĩ Đại, Hokage Đệ Tứ, Namikaze.

    [/TD][/TR][/TABLE]

    [TABLE=align: center, width: 700][TR][TD=bgcolor: RoyalBlue, align:center]Media Info[/TD][/TR]
    [/TABLE]

    IMDb Link........: http://www.imdb.com/title/tt1703048/
    ANN Link.........: http://www.animenewsnetwork.com/encyclopedia/anime.php?id=11422
    aniDB Link.......: http://anidb.net/perl-bin/animedb.pl?show=anime&aid=7483


    DISC INFO:

    Disc Title: NARUTOSHIPPUDENLOSTTOWER-v0minh
    Disc Size: 45,198,091,863 bytes
    Protection: AACS
    BD-Java: No
    BDInfo: 0.5.8

    PLAYLIST REPORT:

    Name: 00014.MPLS
    Length: 1:25:13.983 (h:m:s.ms)
    Size: 17,348,579,328 bytes
    Total Bitrate: 27.14 Mbps

    Angle 1 Length: 1:25:09.020 (h:m:s.ms) / 1:25:13.983 (h:m:s.ms)
    Angle 1 Size: 17,374,267,392 bytes / 17,377,738,752 bytes
    Angle 1 Total Bitrate: 27.21 Mbps / 27.18 Mbps

    All Angles Length: 2:50:23.004 (h:m:s.ms)
    All Angles Size: 34,722,846,720 bytes
    All Angles Bitrate: 27.17 Mbps

    VIDEO:

    Codec Bitrate Description
    ----- ------- -----------
    MPEG-4 AVC Video 17595 kbps 1080p / 23.976 fps / 16:9 / High Profile 4.1
    MPEG-4 AVC Video (1) 17637 (17654) kbps 1080p / 23.976 fps / 16:9 / High Profile 4.1

    AUDIO:

    Codec Language Bitrate Description
    ----- -------- ------- -----------
    DTS-HD Master Audio English 2065 kbps 5.1 / 48 kHz / 2065 kbps / 16-bit (DTS Core: 5.1 / 48 kHz / 1509 kbps / 16-bit)
    DTS-HD Master Audio Japanese 2047 kbps 5.1 / 48 kHz / 2047 kbps / 16-bit (DTS Core: 5.1 / 48 kHz / 1509 kbps / 16-bit)
    DTS-HD Master Audio English 1688 kbps 2.0 / 48 kHz / 1688 kbps / 16-bit (DTS Core: 2.0 / 48 kHz / 1509 kbps / 16-bit)
    DTS-HD Master Audio Japanese 1600 kbps 2.0 / 48 kHz / 1600 kbps / 16-bit (DTS Core: 2.0 / 48 kHz / 1509 kbps / 16-bit)

    SUBTITLES:

    Codec Language Bitrate Description
    ----- -------- ------- -----------
    Presentation Graphics English 22.286 kbps

    FILES:

    Name Time In Length Size Total Bitrate
    ---- ------- ------ ---- -------------
    00012.M2TS 0:00:00.000 1:25:09.020 17,345,107,968 27,160
    00000.M2TS (1) 0:00:00.000 1:25:09.020 17,374,267,392 27,206
    00011.M2TS 1:25:09.020 0:00:04.963 3,471,360 5,595

    [​IMG] [​IMG] [​IMG]




    [TABLE=align: center, width: 700][TR][TD=bgcolor: RoyalBlue, align:center]Screenshots[/TD][/TR][/TABLE]

    [​IMG] [​IMG] [​IMG]
    [​IMG] [​IMG] [​IMG]

    [TABLE=align: center, width: 700][TR][TD=bgcolor: RoyalBlue, align:center]Trailer[/TD][/TR]
    [TR][TD=bgcolor: #FFFFCC]

    [video=youtube;X_eaHphNaMM]http://www.youtube.com/watch?v=X_eaHphNaMM[/video]​


    [/TD][/TR][/TABLE]

    [TABLE=align: center, width: 700][TR][TD=bgcolor: RoyalBlue, align:center]Phụ Đề[/TD][/TR][TR][TD=align: center, bgcolor: #FFFFCC]

    (đã có bản tiếng Việt)
    http://subscene.com/subtitles/naruto-shippuden-movie-4-the-lost-tower/vietnamese/1244052


    [/TD][/TR][/TABLE]

    [TABLE=align: center, width: 700][TR][TD=bgcolor: RoyalBlue, align:center]Download[/TD][/TR]
    [TR][TD=align: center, bgcolor: #FFFFCC]

    Dung lượng: 42.1 GiB
    Nhấn nút Cảm ơn (dưới chân bài) để thấy link!

    [/TD][/TR][/TABLE]

    [TABLE=align: center, width: 700][TR][TD=bgcolor: RoyalBlue, align:center]Các bản KHÁC[/TD][/TR][TR][TD=bgcolor: #FFFFCC]

    720p:
    Naruto Shippuden: The Lost Tower 2010 ViE 720p BluRay FLAC5.1 x264 - {2.8 GiB} Fshare | Phụ Đề | Thuyết Minh

    Blu-ray:
    Naruto Shippuden: The Lost Tower 2010 1080p Blu-ray AVC DTS-HD MA 5.1-v0 (ISO) - {42.1 GiB} Fshare | Phụ Đề [​IMG]


    [/TD][/TR][/TABLE]
     
    Chỉnh sửa cuối: 3/2/16
  12. v0minh

    v0minh Huyền Thoại

    Tham gia ngày:
    23/12/14
    Bài viết:
    19,560
    Đã được cảm ơn:
    170,742
    Giới tính:
    Nam
    Nghề nghiệp:
    Blogger
    Nơi ở:
    Hải Phòng
    Ðề: [Phiêu lưu|Blu-ray ISO] Naruto the Movie collection (2004-2015) 1080p Blu-ray AVC DTS-HD MA 5.1 (ISO) ~ Tổng hợp Naruto phim truyện | Uzumaki Naruto

    08: Naruto Shippuden the Movie: Blood Prison (2011)
     
  13. Charles Walter

    Charles Walter Member

    Tham gia ngày:
    22/9/14
    Bài viết:
    237
    Đã được cảm ơn:
    31
    Ðề: [Phiêu lưu|Blu-ray ISO] Naruto the Movie collection (2004-2015) 1080p Blu-ray AVC DTS-HD MA 5.1 (ISO) ~ Tổng hợp Naruto phim truyện | Uzumaki Naruto

    Finally. *Cúi đầu bái tạ* ^:)^ Cám ơn bác x1 mil times. :x
     
  14. tieupham263

    tieupham263 Well-Known Member

    Tham gia ngày:
    12/4/10
    Bài viết:
    1,096
    Đã được cảm ơn:
    195
    Ðề: [Phiêu lưu|Blu-ray ISO] Naruto the Movie collection (2004-2015) 1080p Blu-ray AVC DTS-HD MA 5.1 (ISO) ~ Tổng hợp Naruto phim truyện | Uzumaki Naruto

    Có mhd ko pác vominh:-/
     
  15. ogami_kenji13

    ogami_kenji13 Active Member

    Tham gia ngày:
    2/9/12
    Bài viết:
    162
    Đã được cảm ơn:
    37
    bạn cho mình hỏi làm sao để xem được thế, mình down về nhưng ko xem được
     
  16. PhuongPS

    PhuongPS Member

    Tham gia ngày:
    7/8/15
    Bài viết:
    43
    Đã được cảm ơn:
    70
    Giới tính:
    Nam
    Nghề nghiệp:
    IT
    Nơi ở:
    Hà Nam
  17. v0minh

    v0minh Huyền Thoại

    Tham gia ngày:
    23/12/14
    Bài viết:
    19,560
    Đã được cảm ơn:
    170,742
    Giới tính:
    Nam
    Nghề nghiệp:
    Blogger
    Nơi ở:
    Hải Phòng
  18. v0minh

    v0minh Huyền Thoại

    Tham gia ngày:
    23/12/14
    Bài viết:
    19,560
    Đã được cảm ơn:
    170,742
    Giới tính:
    Nam
    Nghề nghiệp:
    Blogger
    Nơi ở:
    Hải Phòng
    Ðề: Re: [Phiêu lưu|Blu-ray ISO] Naruto the Movie collection (2004-2015) 1080p Blu-ray AVC DTS-HD MA 5.1 (ISO) ~ Tổng hợp Naruto phim truyện | Uzumaki Naruto

    Bộ này bản có bản không, ko đầy đủ nên mình ko làm mHD.
    Để tổng hợp trọn bộ blu-ray ISO xong chắc sẽ có người làm mHD thôi. Lúc đó mình se post.

    Bạn load sub rời bình thường thôi.
    Dùng dvdfab tạo ổ ảo.
    Dùng TMT6 để play blu-ray.



    -------------------

    Đã update thêm ba tập:

    [TABLE][TR][TD=width: 120, bgcolor: pink, align:center]

    [​IMG]
    Ratings: 6.7/10
    - Phụ đề -
    [/TD] [TD=bgcolor: #FFFFCC]
    Naruto the Movie: Ninja Clash in the Land of Snow 2004 - Naruto: Cuộc chiến ở Tuyết Quốc
    (Junko Takeuchi, Chie Nakamura, Noriaki Sugiyama)

    Yukie Fujikaze là một ngôi sao đang lên của bộ phim ăn khách "The Adventures of Princess Gale". Khi cả đoàn làm phim đề nghị tới làng Ninja Tuyết để thực hiện một phân đoạn, Yukie bất ngờ từ chối và bỏ trốn. Naruto và đội Ninja dưới sự dẫn dắt của Kakashi tham gia vào một nhiệm vụ mới không kém phần hấp dẫn: tìm ra tung tích của nữ diễn viên nổi tiếng này và đưa cô trở lại đoàn. Tuy nhiên cả nhóm phát hiện ra Yukie đang che dấu một bí mật về quá khứ của mình có liên quan đến làng Tuyết.

    Naruto the Movie: Ninja Clash in the Land of Snow 2004 1080p Blu-ray AVC DTS-HD MA 5.1-v0 (ISO) {28.6 GiB} Fshare [​IMG] [​IMG]
    [/TD][/TR][/TABLE]

    [TABLE][TR][TD=width: 120, bgcolor: pink, align:center]

    [​IMG]
    Ratings: 7.0/10
    - Phụ đề -
    [/TD] [TD=bgcolor: #FFFFCC]
    Naruto Shippuden The Movie: Bonds 2008 - Naruto Shippuden: Nhiệm vụ bí mật
    (Junko Takeuchi, Chie Nakamura, Noriaki Sugiyama)

    Một nhóm ninja bí ẩn đến từ Không Quốc (Sora no Kuni) được gọi là Sora-nin đã bất ngờ tấn công Konoha. Họ là những thành phần còn sót lại của Không Quốc sau khi nơi đó gần như bị huỷ diệt bởi Konoha trong trận Ninja đại chiến lần hai. Mục tiêu lần này của bọn họ là Hoả Quốc (Land of Fire), hay nói chính xác hơn, thì chính là nhằm vào Konoha để trả thù rửa hận.Họ bắt đầu tấn công vào Konoha với những Sora-nin bay lượn trên không nhờ các thiết bị cơ khí có cánh và bắt đầu đánh bom vào làng, tạo nên cảnh tượng hỗn loạn vô cùng. Cùng lúc đó có một cậu bé đã vượt qua quãng đường rất dài để đến được Konoha, cậu nói làng của cậu đã bị tấn công và giờ thì cậu đang tìm người thầy hiện ở ngay tại Konoha để đưa ông ấy về chữa thương cho dân làng cậu.

    Naruto Shippuden The Movie: Bonds 2008 1080p Blu-ray AVC DTS-HD MA 5.1-v0 (ISO) {32.7 GiB} Fshare [​IMG] [​IMG]
    [/TD][/TR][/TABLE]

    [TABLE][TR][TD=width: 120, bgcolor: pink, align:center]

    [​IMG]
    Ratings: 6.9/10
    - Phụ đề -
    [/TD] [TD=bgcolor: #FFFFCC]
    Naruto Shippuden: The Lost Tower 2010 - Tòa Tháp Bị Lãng Quên
    (Junko Takeuchi, Chie Nakamura, Satoshi Hino)

    Được giao nhiệm vụ một để đi bắt Mukade, một missing-nin (ninja bỏ trốn). Uzumaki Naruto đc sắp đặt vào di tích lịch sử vẻ vang đã bị tàn phá: Ouran, nơi Naruto truy đuổi các ninja đang làm việc cho Mukade và Mukade. Mục tiêu của Mukade đã được tiết lộ là để có một leyline hoạt động bên trong những sự tàn phá và hắn sẽ giải phóng sức mạnh của leyline, gây ra một ánh sáng để bao bọc Naruto và gửi Nar vào quá khứ, 20 năm trước khi mọi chuyện bắt đầu. Khi Naruto thức dậy trong quá khứ, Nar đã đc tiếp xúc, nói chuyện và chiến đấu cùng Người Cha Vĩ Đại, Hokage Đệ Tứ, Namikaze.

    Naruto Shippuden: The Lost Tower 2010 1080p Blu-ray AVC DTS-HD MA 5.1-v0 (ISO) {42.1 GiB} Fshare [​IMG] [​IMG]
    [/TD][/TR][/TABLE]
     
  19. Charles Walter

    Charles Walter Member

    Tham gia ngày:
    22/9/14
    Bài viết:
    237
    Đã được cảm ơn:
    31
    Ðề: Re: [Phiêu lưu|Blu-ray ISO] Naruto the Movie collection (2004-2015) 1080p Blu-ray AVC DTS-HD MA 5.1 (ISO) ~ Tổng hợp Naruto phim truyện | Uzumaki Naruto

    sắp đủ bộ dòi. Tks bác. :x
     
    3veronicas cảm ơn bài này.
  20. Fabregas9x

    Fabregas9x Member

    Tham gia ngày:
    28/2/11
    Bài viết:
    37
    Đã được cảm ơn:
    1
    Ðề: [Phiêu lưu|Blu-ray ISO] Naruto the Movie collection (2004-2015) 1080p Blu-ray AVC DTS-HD MA 5.1 (ISO) ~ Tổng hợp Naruto phim truyện | Uzumaki Naruto

    Naruto Shippuden Movie 6 : Road to Ninja không có phụ đề tiếng việt hả chủ thớt :((
     

Chia sẻ trang này