Phim 3D dành cho TV 3D thụ đông (Passive)

Thảo luận trong '3D' bắt đầu bởi laumam, 10/12/11.

  1. caothanhhai

    caothanhhai Member

    Tham gia ngày:
    25/9/08
    Bài viết:
    194
    Đã được thích:
    1
    Điểm thành tích:
    18
    Ðề: Phim 3D dành cho TV 3D thụ đông (Passive)

    Hi chào các bác

    Mình đã down phim tại đây và xem trên tivi LG LW - Rất đẹp .... nhưng vẫn thấy chưa hài lòng lắm ....:)) Loay hoay tiếng, phụ đề .... vẫn thấy thiếu thiếu
    Nhà đang dùng con đầu Xtremmer (2 năm tuổi ) - Xem thì được tiếng nhưng phần 3 D vẫn không ổn

    Thế là hôm qua em vác con Egreat R300 (chuyên 3d) về ----- 10 phân vẹn 10 các bác ạ
    Nếu xem bằng đầu là 10 thì xem trực tiếp bằng tivi chỉ đáng 2 thôi

    Giá cũng chỉ 3.5T - Tôi nghĩ các bác nên đầu tư một quả - Rất đáng đồng tiền bát gạo :))

    Thanks
     
  2. laumam

    laumam New Member

    Tham gia ngày:
    22/2/09
    Bài viết:
    1,774
    Đã được thích:
    6
    Điểm thành tích:
    0
    Ðề: Phim 3D dành cho TV 3D thụ đông (Passive)

    MY BLOODY VALENTINE 3D 1080 DTS OU_LTDuc_Phụ Đề

    [​IMG]
    [​IMG]
    [​IMG]
    [​IMG]
    [​IMG]
    [​IMG]
    [​IMG]

    Mã:
    Format                                   : Matroska
    Format version                           : Version 2
    File size                                : 14.0 GiB
    Duration                                 : 1h 41mn
    Overall bit rate mode                    : Variable
    Overall bit rate                         : 19.8 Mbps
    Movie name                               : LTDuc_3DRip
    Encoded date                             : UTC 2012-01-07 05:20:54
    Writing library                          : libebml v0.7.8 + libmatroska v0.8.1
    
    Video
    ID                                       : 7
    Format                                   : AVC
    Format/Info                              : Advanced Video Codec
    Format profile                           : High@L5.1
    Format settings, CABAC                   : Yes
    Format settings, ReFrames                : 2 frames
    Codec ID                                 : V_MPEG4/ISO/AVC
    Duration                                 : 1h 41mn
    Bit rate                                 : 17.8 Mbps
    Width                                    : 1 920 pixels
    Height                                   : 1 080 pixels
    Display aspect ratio                     : 16:9
    Frame rate                               : 23.976 fps
    Color space                              : YUV
    Chroma subsampling                       : 4:2:0
    Bit depth                                : 8 bits
    Scan type                                : Progressive
    Bits/(Pixel*Frame)                       : 0.358
    Stream size                              : 12.6 GiB (90%)
    Writing library                          : x264 core
    Color primaries                          : BT.709-5, BT.1361, IEC 61966-2-4, SMPTE RP177
    Transfer characteristics                 : BT.709-5, BT.1361
    Matrix coefficients                      : BT.709-5, BT.1361, IEC 61966-2-4 709, SMPTE RP177
    
    Audio
    ID                                       : 8
    Format                                   : DTS
    Format/Info                              : Digital Theater Systems
    Format profile                           : MA / Core
    Codec ID                                 : A_DTS
    Duration                                 : 1h 41mn
    Bit rate mode                            : Variable
    Bit rate                                 : 1 648 Kbps / 1 510 Kbps
    Channel(s)                               : 8 channels / 6 channels
    Channel positions                        : Front: L C R, Side: L R, Wide: L R, LFE / Front: L C R, Side: L R, LFE
    Sampling rate                            : 48.0 KHz
    Bit depth                                : 24 bits
    Compression mode                         : Lossless / Lossy
    Language                                 : English
    
    Menu
    00:00:00.000                             : en:(01)00:00:00:000
    [HIDE]my bloody valentine --[/HIDE]
     
    Chỉnh sửa cuối: 7/1/12
  3. laumam

    laumam New Member

    Tham gia ngày:
    22/2/09
    Bài viết:
    1,774
    Đã được thích:
    6
    Điểm thành tích:
    0
    Ðề: Phim 3D dành cho TV 3D thụ đông (Passive)

    HIDDEN 3D 1080 DTS OU_LTDuc_Phụ Đề

    [​IMG]
    [​IMG]
    [​IMG]
    [​IMG]
    [​IMG]

    Mã:
    Format                                   : Matroska
    Format version                           : Version 2
    File size                                : 11.0 GiB
    Duration                                 : 1h 21mn
    Overall bit rate mode                    : Variable
    Overall bit rate                         : 19.3 Mbps
    Movie name                               : LTDuc_3DRip
    Encoded date                             : UTC 2012-01-07 13:47:29
    Writing library                          : libebml v0.7.8 + libmatroska v0.8.1
    
    Video
    ID                                       : 1
    Format                                   : AVC
    Format/Info                              : Advanced Video Codec
    Format profile                           : High@L5.1
    Format settings, CABAC                   : Yes
    Format settings, ReFrames                : 2 frames
    Codec ID                                 : V_MPEG4/ISO/AVC
    Duration                                 : 1h 21mn
    Bit rate                                 : 17.3 Mbps
    Width                                    : 1 920 pixels
    Height                                   : 1 080 pixels
    Display aspect ratio                     : 16:9
    Frame rate                               : 23.976 fps
    Color space                              : YUV
    Chroma subsampling                       : 4:2:0
    Bit depth                                : 8 bits
    Scan type                                : Progressive
    Bits/(Pixel*Frame)                       : 0.348
    Stream size                              : 9.83 GiB (90%)
    Writing library                          : x264 core
    Color primaries                          : BT.709-5, BT.1361, IEC 61966-2-4, SMPTE RP177
    Transfer characteristics                 : BT.709-5, BT.1361
    Matrix coefficients                      : BT.709-5, BT.1361, IEC 61966-2-4 709, SMPTE RP177
    
    Audio
    ID                                       : 2
    Format                                   : DTS
    Format/Info                              : Digital Theater Systems
    Format profile                           : MA / Core
    Codec ID                                 : A_DTS
    Duration                                 : 1h 21mn
    Bit rate mode                            : Variable
    Bit rate                                 : 1 590 Kbps / 1 152 Kbps
    Channel(s)                               : 6 channels
    Channel positions                        : Front: L C R, Side: L R, LFE
    Sampling rate                            : 48.0 KHz
    Bit depth                                : 16 bits
    Compression mode                         : Lossless / Lossy
    Language                                 : English
    [HIDE]hidden 3d --[/HIDE]
     
    Chỉnh sửa cuối: 9/1/12
  4. nhoxbom35

    nhoxbom35 Banned

    Tham gia ngày:
    17/3/10
    Bài viết:
    51
    Đã được thích:
    0
    Điểm thành tích:
    0
    Ðề: Phim 3D dành cho TV 3D thụ đông (Passive)

    nhà bác laumam ở đâu vậy e wa chép fim dùm đc ko. em kiếm mấy tiệm chép phim mà toàn audio dts nản wa, nhà em xài LG nên chỉ có ac3 thui please!
     
  5. pxlocbk

    pxlocbk New Member

    Tham gia ngày:
    3/10/10
    Bài viết:
    11
    Đã được thích:
    0
    Điểm thành tích:
    0
    Ðề: Phim 3D dành cho TV 3D thụ đông (Passive)

    Chính xác. Em Egreat R300 và em 42LW4500 được mình rước về cùng 1 ngày. R300 đã biến em LW4500 của mình thành 1 chiếc Smart TV 3D thực thu. Thật đúng là cặp đôi hoàn hảo. Ngon-bổ-rẻ.
     
  6. laumam

    laumam New Member

    Tham gia ngày:
    22/2/09
    Bài viết:
    1,774
    Đã được thích:
    6
    Điểm thành tích:
    0
    Ðề: Phim 3D dành cho TV 3D thụ đông (Passive)

    Pirates Caribbean On Stranger Tides 3D DTS OU_LTDuc_Thuyết Minh (Bản Full Màn Hình)

    [​IMG]
    [​IMG]
    [​IMG]
    [​IMG]
    [​IMG]
    [​IMG]

    Bản phim này đã được crop 2 vạch đen , khi xem TV3D sẽ Full Màn Hình

    Mã:
    Format                                   : Matroska
    Format version                           : Version 2
    File size                                : 18.9 GiB
    Duration                                 : 2h 16mn
    Overall bit rate mode                    : Variable
    Overall bit rate                         : 19.8 Mbps
    Movie name                               : LTDuc_3DRip
    Encoded date                             : UTC 2012-01-08 21:55:31
    Writing application                      : mkvmerge v5.0.1 ('Es ist Sommer') built on Oct  9 2011 11:55:43
    Writing library                          : libebml v1.2.2 + libmatroska v1.3.0
    
    Video
    ID                                       : 1
    Format                                   : AVC
    Format/Info                              : Advanced Video Codec
    Format profile                           : High@L5.1
    Format settings, CABAC                   : Yes
    Format settings, ReFrames                : 2 frames
    Muxing mode                              : Header stripping
    Codec ID                                 : V_MPEG4/ISO/AVC
    Duration                                 : 2h 16mn
    Bit rate                                 : 15.2 Mbps
    Width                                    : 1 920 pixels
    Height                                   : 1 084 pixels
    Display aspect ratio                     : 16:9
    Frame rate                               : 23.976 fps
    Color space                              : YUV
    Chroma subsampling                       : 4:2:0
    Bit depth                                : 8 bits
    Scan type                                : Progressive
    Bits/(Pixel*Frame)                       : 0.304
    Stream size                              : 14.4 GiB (77%)
    Writing library                          : x264 core
    Color primaries                          : BT.709-5, BT.1361, IEC 61966-2-4, SMPTE RP177
    Transfer characteristics                 : BT.709-5, BT.1361
    Matrix coefficients                      : BT.709-5, BT.1361, IEC 61966-2-4 709, SMPTE RP177
    
    Audio #1
    ID                                       : 2
    Format                                   : DTS
    Format/Info                              : Digital Theater Systems
    Format profile                           : MA / Core
    Muxing mode                              : Header stripping
    Codec ID                                 : A_DTS
    Duration                                 : 2h 16mn
    Bit rate mode                            : Variable
    Bit rate                                 : 3 607 Kbps / 1 510 Kbps
    Channel(s)                               : 8 channels / 6 channels
    Channel positions                        : Front: L C R, Side: L R, Back: L R, LFE / Front: L C R, Side: L R, LFE
    Sampling rate                            : 48.0 KHz
    Bit depth                                : 24 bits
    Compression mode                         : Lossless / Lossy
    Language                                 : English
    
    Audio #2
    ID                                       : 3
    Format                                   : AC-3
    Format/Info                              : Audio Coding 3
    Mode extension                           : CM (complete main)
    Muxing mode                              : Header stripping
    Codec ID                                 : A_AC3
    Duration                                 : 2h 16mn
    Bit rate mode                            : Constant
    Bit rate                                 : 640 Kbps
    Channel(s)                               : 6 channels
    Channel positions                        : Front: L C R, Side: L R, LFE
    Sampling rate                            : 48.0 KHz
    Bit depth                                : 16 bits
    Compression mode                         : Lossy
    Stream size                              : 624 MiB (3%)
    Language                                 : Vietnamese
    [HIDE]Pirates_Caribbean_On_StrangerTides_3D_DTS_OU_LTDuc_Thuyet_Minh.mkv - Fshare - Dịch vụ chia sẻ, lưu trữ dữ liệu miễn phí tốt nhất[/HIDE]
     
    Chỉnh sửa cuối: 10/1/12
  7. nhoxbom35

    nhoxbom35 Banned

    Tham gia ngày:
    17/3/10
    Bài viết:
    51
    Đã được thích:
    0
    Điểm thành tích:
    0
    Ðề: Phim 3D dành cho TV 3D thụ đông (Passive)

    Cho e mượn acc fshare với bác thank
     
  8. maivanlinh

    maivanlinh Member

    Tham gia ngày:
    6/1/11
    Bài viết:
    265
    Đã được thích:
    0
    Điểm thành tích:
    16
    Đã có ý kiến là âm thanh chỉ cần DTS hoặc AC, nhưng nếu xem phim 5.1 mà không có True HD hoặc DTS HD-MA thì phần nghe giảm hẳn. Đề nghị bạn tiếp tục úp tiếp thêm âm thanh True HD hoặc DTS HD-MA, vì dung lượng tăng không đáng kể, nhất là những phim action mà không có DTS HD-MA thì hiệu quả giảm hẳn. Mong được bạn lưu ý. Cám ơn bạn nhiều.
     
  9. laumam

    laumam New Member

    Tham gia ngày:
    22/2/09
    Bài viết:
    1,774
    Đã được thích:
    6
    Điểm thành tích:
    0
    Ðề: Phim 3D dành cho TV 3D thụ đông (Passive)

    đã up xong Hidden 3D
     
  10. hungmh80

    hungmh80 Active Member

    Tham gia ngày:
    4/2/10
    Bài viết:
    3,682
    Đã được thích:
    1
    Điểm thành tích:
    38
    Nghề nghiệp:
    Nhân viên nhà nước
    Nơi ở:
    Việt Nam
    Ðề: Phim 3D dành cho TV 3D thụ đông (Passive)

    Chờ bác ra bản Transformers 3 Dark Of The Moon 3D (2011) , em đợi con hàng lâu lắm rồi , hình như cuối tháng này mới có bản chất đúng không hả bác ? Mấy bản bên HDM em không kéo về vì không chất , chờ tin của bác , thank
     
  11. laumam

    laumam New Member

    Tham gia ngày:
    22/2/09
    Bài viết:
    1,774
    Đã được thích:
    6
    Điểm thành tích:
    0
    Ðề: Phim 3D dành cho TV 3D thụ đông (Passive)

    Bản phim này , hiện nay chưa chưa có source 3DBD , nếu có mình sẽ up sớm .
     
  12. laumam

    laumam New Member

    Tham gia ngày:
    22/2/09
    Bài viết:
    1,774
    Đã được thích:
    6
    Điểm thành tích:
    0
    Ðề: Phim 3D dành cho TV 3D thụ đông (Passive)

    TIMELESS TAIWAN Chinese DTS OU_LTDuc

    [​IMG]
    [​IMG]
    [​IMG]
    [​IMG]
    [​IMG]
    [​IMG]
    [​IMG]
    [​IMG]
    [​IMG]
    [​IMG]
    [​IMG]


    Bản phim này giới thiệu về những phong cảnh và những mùa lễ hội ở Đài loan. Phim được quay bằng máy quay 3D nên hình ảnh rất đẹp

    Mã:
    Format                                   : Matroska
    Format version                           : Version 2
    File size                                : 5.44 GiB
    Duration                                 : 42mn 3s
    Overall bit rate mode                    : Variable
    Overall bit rate                         : 18.5 Mbps
    Movie name                               : LTDuc_3DRip
    Encoded date                             : UTC 2012-01-10 10:28:01
    Writing library                          : libebml v0.7.8 + libmatroska v0.8.1
    
    Video
    ID                                       : 3
    Format                                   : AVC
    Format/Info                              : Advanced Video Codec
    Format profile                           : High@L5.1
    Format settings, CABAC                   : Yes
    Format settings, ReFrames                : 2 frames
    Codec ID                                 : V_MPEG4/ISO/AVC
    Duration                                 : 42mn 3s
    Bit rate                                 : 16.6 Mbps
    Width                                    : 1 920 pixels
    Height                                   : 1 080 pixels
    Display aspect ratio                     : 16:9
    Frame rate                               : 23.976 fps
    Color space                              : YUV
    Chroma subsampling                       : 4:2:0
    Bit depth                                : 8 bits
    Scan type                                : Progressive
    Bits/(Pixel*Frame)                       : 0.334
    Stream size                              : 4.88 GiB (90%)
    Writing library                          : x264 core
    Color primaries                          : BT.709-5, BT.1361, IEC 61966-2-4, SMPTE RP177
    Transfer characteristics                 : BT.709-5, BT.1361
    Matrix coefficients                      : BT.709-5, BT.1361, IEC 61966-2-4 709, SMPTE RP177
    
    Audio
    ID                                       : 4
    Format                                   : DTS
    Format/Info                              : Digital Theater Systems
    Format profile                           : MA / Core
    Codec ID                                 : A_DTS
    Duration                                 : 42mn 3s
    Bit rate mode                            : Variable
    Bit rate                                 : 1 561 Kbps / 1 510 Kbps
    Channel(s)                               : 6 channels
    Channel positions                        : Front: L C R, Side: L R, LFE
    Sampling rate                            : 48.0 KHz
    Bit depth                                : 16 bits
    Compression mode                         : Lossless / Lossy
    Language                                 : Chinese
    [HIDE]TIMELESSTAIWAN_Chinese_DTS_OU_LTDuc.mkv - Fshare - Dịch vụ chia sẻ, lưu trữ dữ liệu miễn phí tốt nhất[/HIDE]
     
    Chỉnh sửa cuối: 10/1/12
  13. nhoxbom35

    nhoxbom35 Banned

    Tham gia ngày:
    17/3/10
    Bài viết:
    51
    Đã được thích:
    0
    Điểm thành tích:
    0
    Ðề: Phim 3D dành cho TV 3D thụ đông (Passive)

    Cho mình hỏi mấy phim của bác bản có thuyết minh TV không hỗ trợ dts vẫn có tiếng đúng ko thank
     
  14. laumam

    laumam New Member

    Tham gia ngày:
    22/2/09
    Bài viết:
    1,774
    Đã được thích:
    6
    Điểm thành tích:
    0
    Ðề: Phim 3D dành cho TV 3D thụ đông (Passive)

    đã up xong Pirates Caribbean On Stranger Tides 3D và TIMELESS TAIWAN 3D
     
    Chỉnh sửa cuối: 10/1/12
  15. TL_Vietnam

    TL_Vietnam New Member

    Tham gia ngày:
    24/10/11
    Bài viết:
    63
    Đã được thích:
    0
    Điểm thành tích:
    0
    Ðề: Phim 3D dành cho TV 3D thụ đông (Passive)

    Fshare không dùng chung TK được nữa rồi - nhìn link của bác thèm quá :(
     
  16. nhoxbom35

    nhoxbom35 Banned

    Tham gia ngày:
    17/3/10
    Bài viết:
    51
    Đã được thích:
    0
    Điểm thành tích:
    0
    Ðề: Phim 3D dành cho TV 3D thụ đông (Passive)

    Cho hỏi phim CHILDS EYE 3D 1080 DTS Chinese OU_LTDuc_Thuyết Minh Tv lg lw4500 em coi ko được cắm hdd vào bật nó báo file không hỗ trợ bùn wa công sức kéo từ sáng tới giờ mà ko coi được hix. Ai giúp với help me!
     
  17. laumam

    laumam New Member

    Tham gia ngày:
    22/2/09
    Bài viết:
    1,774
    Đã được thích:
    6
    Điểm thành tích:
    0
    Ðề: Phim 3D dành cho TV 3D thụ đông (Passive)

    thử update firmware qua mạng internet để hỗ trợ profile 5.1. phải tìm hiễu kỹ nhé ,trước khi quyết định
     
  18. nhoxbom35

    nhoxbom35 Banned

    Tham gia ngày:
    17/3/10
    Bài viết:
    51
    Đã được thích:
    0
    Điểm thành tích:
    0
    Ðề: Phim 3D dành cho TV 3D thụ đông (Passive)

    TV mình đâu hỗ trợ internet mà update. có cách khắc phục nào hok giúp mình với? hết dts lo được rồi giờ đến cái profile5.1 nguồn phim thì hiếm biết kiếm phim đâu ra mà coi bây giờ đến khổ hizz
     
  19. hungmh80

    hungmh80 Active Member

    Tham gia ngày:
    4/2/10
    Bài viết:
    3,682
    Đã được thích:
    1
    Điểm thành tích:
    38
    Nghề nghiệp:
    Nhân viên nhà nước
    Nơi ở:
    Việt Nam
    Ðề: Phim 3D dành cho TV 3D thụ đông (Passive)

    Bác cho em hỏi , phim này em kéo về lâu rồi , hôm nay xem thì thấy không ra DTS , vậy là sao hả bác ?
    Trên HDP vẫn báo có DTS nhưng ARV chỉ báo 2 kênh thôi , các phim khác thì bình thường

    E kéo bản Crop full màn hình

    Hay là bác set ra 6.1 , ARV của em chỉ là 5.1 thôi .

    Có cách nào khắc phục không hả bác ?

    Xem phim mà không có DTS thì mất cả sướng , hic
     
  20. nhoxbom35

    nhoxbom35 Banned

    Tham gia ngày:
    17/3/10
    Bài viết:
    51
    Đã được thích:
    0
    Điểm thành tích:
    0
    Ðề: Phim 3D dành cho TV 3D thụ đông (Passive)

    tình hình là mình dùng soft H264LevelEditor để hạ profile level 5.1 xuống 4.1 nhưng vẫn không đọc được ai giúp với
     

Chia sẻ trang này