[Fshare] Phim HD (mp4) có audio Việt dung lượng nhẹ

Thảo luận trong 'Phim có audio Việt' bắt đầu bởi kieubangchu, 8/12/17.

  1. kieubangchu

    kieubangchu Well-Known Member

    Tham gia ngày:
    26/12/09
    Bài viết:
    648
    Đã được cảm ơn:
    3,808
    Điểm thành tích:
    93
    Tiền:
    610 CR
    229.Vô Gian Đạo - Infernal Affair (2002)
    [​IMG]



    Diễn viên: Andy Lau, Anthony Wong Chau-Sang, Tony Leung Chiu Wai,
    Thể loại: Phim Hành động, Phim Hình Sự
    Quốc gia: Phim Hồng Kong
    Đạo diễn: Alan MakWai-keung Lau
    Thời lượng: 100 Phút



    Screens
    [​IMG]



    Vì bị làm ăn thất bại nên Hán Thẩm đã cử Lưu Kiến Minh vào trong đội cảnh sát làm tay trong. Đồng thời bên cảnh sát vì muốn có những chứng cớ hữu hiệu để đánh đánh bại XHĐ đã cử Trần Vĩnh Nhân làm tay trong dưới trướng của Hán Thẩm. Hai nhân vật ấy ngay từ đầu đã không có sự chọn lựa cho con đường tương lai của mình. Cả 4 người họ càng ngày càng tiến sâu vào con đường không có lối thoát. Một kẻ thì muốn nói cho cả thế giới rằng bản thân là một người cảnh sát. “Tôi muốn làm một cảnh sát tốt. Một người thì muốn thay đổi cuộc đời, muốn hoàn lương Tôi muốn làm người tốt, hãy cho tôi cơ hội.



    MediaInfo:
    Mã:
    Complete name  : G:\Movies\Vo_Gian_Dao_1.mp4
    Format  : MPEG-4
    Format profile  : Base Media / Version 2
    Codec ID  : mp42 (isom/mp42)
    File size  : 1.05 GiB
    Duration  : 1 h 40 min
    Overall bit rate mode  : Variable
    Overall bit rate  : 1 491 kb/s
    Encoded date  : UTC 2015-08-26 04:18:15
    Tagged date  : UTC 2015-08-26 04:18:15
    gsst  : 0
    gstd  : 6048866
    
    Video
    ID  : 1
    Format  : AVC
    Format/Info  : Advanced Video Codec
    Format profile  : High@L3.1
    Format settings  : CABAC / 1 Ref Frames
    Format settings, CABAC  : Yes
    Format settings, ReFrames  : 1 frame
    Codec ID  : avc1
    Codec ID/Info  : Advanced Video Coding
    Duration  : 1 h 40 min
    Bit rate  : 1 296 kb/s
    Maximum bit rate  : 4 865 kb/s
    Width  : 1 280 pixels
    Height  : 556 pixels
    Display aspect ratio  : 2.35:1
    Frame rate mode  : Constant
    Frame rate  : 24.000 FPS
    Color space  : YUV
    Chroma subsampling  : 4:2:0
    Bit depth  : 8 bits
    Scan type  : Progressive
    Bits/(Pixel*Frame)  : 0.076
    Stream size  : 935 MiB (87%)
    Tagged date  : UTC 2015-08-26 04:19:46
    Codec configuration box  : avcC
    
    Audio
    ID  : 2
    Format  : AAC LC
    Format/Info  : Advanced Audio Codec Low Complexity
    Codec ID  : mp4a-40-2
    Duration  : 1 h 40 min
    Bit rate mode  : Variable
    Bit rate  : 192 kb/s
    Maximum bit rate  : 202 kb/s
    Channel(s)  : 2 channels
    Channel layout  : L R
    Sampling rate  : 44.1 kHz
    Frame rate  : 43.066 FPS (1024 SPF)
    Compression mode  : Lossy
    Stream size  : 138 MiB (13%)
    Title  : IsoMedia File Produced by Google, 5-11-2011
    Language  : Vietnamese
    


    DOWNLOAD
    Nhấn nút Cảm ơn (dưới chân bài) để thấy link!
     
    tacn, lehuuthao, Mr Trùm and 3 others like this.
  2. kieubangchu

    kieubangchu Well-Known Member

    Tham gia ngày:
    26/12/09
    Bài viết:
    648
    Đã được cảm ơn:
    3,808
    Điểm thành tích:
    93
    Tiền:
    610 CR
    230.Vô Gian Đạo 2 - Infernal Affairs 2 (2003)
    [​IMG]



    Đạo diễn: Alan MakWai-keung Lau
    Diễn viên: Anthony Wong Chau-Sang, Edison Chen, Shawn Yue,
    Thể loại: Phim Hành động, Phim Hình Sự
    Quốc gia: Phim Hồng Kong
    Thời lượng: 114 Phút



    Screens
    [​IMG]


    Nghê Khôn, trùm xã hội đen bị sát hại. Nghê Vĩnh Hiếu, đứa con trai, lên kế vị và phát hiện ra viên cảnh sát trẻ Trần Vĩnh Nhân là con trai riêng của cha mình. Vĩnh Nhân bị đuổi khỏi sở cảnh sát.
    Đội trưởng Huỳnh nhận Nhân làm tay trong để điều tra về gia đình của Nghê Vĩnh Hiếu. Nhưng Vĩnh Hiếu rất cao tay, đã tìm ra được bằng chứng cho thấy chính Huỳnh cấu kết với mary, vợ của hán Thẩm, đã sai người giết cha hắn. Nghê Vĩnh Hiếu cho đàn em báo thù, nhưng Huỳnh và Hán Thẩm thoát chết…



    MediaInfo:
    Mã:
    Complete name  : G:\Movies\Vo_Gian_Dao_2.mp4
    Format  : MPEG-4
    Format profile  : Base Media / Version 2
    Codec ID  : mp42 (isom/mp42)
    File size  : 1.17 GiB
    Duration  : 1 h 59 min
    Overall bit rate mode  : Variable
    Overall bit rate  : 1 404 kb/s
    Encoded date  : UTC 2015-06-17 11:50:18
    Tagged date  : UTC 2015-06-17 11:50:18
    gsst  : 0
    gstd  : 7168138
    
    Video
    ID  : 1
    Format  : AVC
    Format/Info  : Advanced Video Codec
    Format profile  : High@L3.1
    Format settings  : CABAC / 1 Ref Frames
    Format settings, CABAC  : Yes
    Format settings, ReFrames  : 1 frame
    Codec ID  : avc1
    Codec ID/Info  : Advanced Video Coding
    Duration  : 1 h 59 min
    Bit rate  : 1 209 kb/s
    Maximum bit rate  : 6 463 kb/s
    Width  : 1 280 pixels
    Height  : 530 pixels
    Display aspect ratio  : 2.40:1
    Frame rate mode  : Constant
    Frame rate  : 24.000 FPS
    Color space  : YUV
    Chroma subsampling  : 4:2:0
    Bit depth  : 8 bits
    Scan type  : Progressive
    Bits/(Pixel*Frame)  : 0.074
    Stream size  : 1.01 GiB (86%)
    Tagged date  : UTC 2015-06-17 11:52:48
    Codec configuration box  : avcC
    
    Audio
    ID  : 2
    Format  : AAC LC
    Format/Info  : Advanced Audio Codec Low Complexity
    Codec ID  : mp4a-40-2
    Duration  : 1 h 59 min
    Bit rate mode  : Variable
    Bit rate  : 192 kb/s
    Maximum bit rate  : 202 kb/s
    Channel(s)  : 2 channels
    Channel layout  : L R
    Sampling rate  : 44.1 kHz
    Frame rate  : 43.066 FPS (1024 SPF)
    Compression mode  : Lossy
    Stream size  : 164 MiB (14%)
    Title  : IsoMedia File Produced by Google, 5-11-2011
    Language  : Vietnamese
    


    DOWNLOAD
    Nhấn nút Cảm ơn (dưới chân bài) để thấy link!
     
    CMCSoftware, tacn, lehuuthao and 4 others like this.
  3. kieubangchu

    kieubangchu Well-Known Member

    Tham gia ngày:
    26/12/09
    Bài viết:
    648
    Đã được cảm ơn:
    3,808
    Điểm thành tích:
    93
    Tiền:
    610 CR
    231.Vô Gian Đạo 3 - Infernal Affairs 3 (2003)
    [​IMG]



    Đạo diễn: Alan MakWai-keung Lau
    Diễn viên: Andy Lau, Leon Lai, Tony Leung Chiu Wai,
    Thể loại: Phim Hành động, Phim Hình Sự
    Quốc gia: Phim Hồng Kong
    Thời lượng: 118 Phút



    Screens
    [​IMG]



    Vô gian đạo III đưa người xem đến thời điểm bối cảnh giữa và sau phần I (phần chính yếu). Những diễn tiến của Vô gian đạo III xen kẽ Vô gian đạo I nhằm giải thích rõ thêm nguyên nhân và hậu quả của những sự kiện trong cuộc đối đầu nội gián ly kỳ giữa cảnh sát và băng đảng.

    Bác sĩ Lý từng chữa trị tâm lý cho Trần Vĩnh Nhân (khi anh này còn sống và còn là cảnh sát chìm cài vào băng đảng ông trùm Sâm) nay lại gặp Lưu Kiến Minh – kẻ đã giết Nhân để bịt đầu mối và sẵn sàng thủ tiêu bất cứ ai có thể phát hiện ra y là người nội gián trong sở cảnh sát. Minh nay phải đối đầu với cuộc điều tra “quyết tìm ra sự thật” của cảnh sát Dương Cẩm Vinh (Lê Minh đóng) và Thẩm Trừng (Trần Đạo Minh đóng) vốn cũng là cảnh sát chìm lâu năm

    Sự giày vò trong Minh, sự mệt mỏi đối phó của Minh, và hậu quả cuối cùng mà Minh phải chịu (tự sát, nhưng “trời cũng không cho chết” mà từ đó về sau phải sống bất toại trên xe lăn) là điều cốt lõi trong ba chữ “Vô gian đạo” – con đường có khoảng cách thật mong manh, khó thể phân định chính tà, thiện ác khi mọi sự chưa ngã ngũ. Hay “lỡ bước xuống thuyền đạo tặc rồi thì khó có thể trèo lên”?


    MediaInfo:
    Mã:
    Complete name  : G:\Movies\Vo_Gian_Dao_3.mp4
    Format  : MPEG-4
    Format profile  : Base Media / Version 2
    Codec ID  : mp42 (isom/mp42)
    File size  : 1.08 GiB
    Duration  : 1 h 57 min
    Overall bit rate mode  : Variable
    Overall bit rate  : 1 311 kb/s
    Encoded date  : UTC 2015-06-17 11:40:17
    Tagged date  : UTC 2015-06-17 11:40:17
    gsst  : 0
    gstd  : 7070498
    
    Video
    ID  : 1
    Format  : AVC
    Format/Info  : Advanced Video Codec
    Format profile  : High@L3.1
    Format settings  : CABAC / 1 Ref Frames
    Format settings, CABAC  : Yes
    Format settings, ReFrames  : 1 frame
    Codec ID  : avc1
    Codec ID/Info  : Advanced Video Coding
    Duration  : 1 h 57 min
    Bit rate  : 1 117 kb/s
    Maximum bit rate  : 8 224 kb/s
    Width  : 1 280 pixels
    Height  : 530 pixels
    Display aspect ratio  : 2.40:1
    Frame rate mode  : Constant
    Frame rate  : 24.000 FPS
    Color space  : YUV
    Chroma subsampling  : 4:2:0
    Bit depth  : 8 bits
    Scan type  : Progressive
    Bits/(Pixel*Frame)  : 0.069
    Stream size  : 941 MiB (85%)
    Tagged date  : UTC 2015-06-17 11:43:41
    Codec configuration box  : avcC
    
    Audio
    ID  : 2
    Format  : AAC LC
    Format/Info  : Advanced Audio Codec Low Complexity
    Codec ID  : mp4a-40-2
    Duration  : 1 h 57 min
    Bit rate mode  : Variable
    Bit rate  : 192 kb/s
    Maximum bit rate  : 201 kb/s
    Channel(s)  : 2 channels
    Channel layout  : L R
    Sampling rate  : 44.1 kHz
    Frame rate  : 43.066 FPS (1024 SPF)
    Compression mode  : Lossy
    Stream size  : 162 MiB (15%)
    Title  : IsoMedia File Produced by Google, 5-
    Language  : Vietnamese
    


    DOWNLOAD
    Nhấn nút Cảm ơn (dưới chân bài) để thấy link!
     
    tacn, lehuuthao, Mr Trùm and 4 others like this.
  4. kieubangchu

    kieubangchu Well-Known Member

    Tham gia ngày:
    26/12/09
    Bài viết:
    648
    Đã được cảm ơn:
    3,808
    Điểm thành tích:
    93
    Tiền:
    610 CR
    232.Huyền Thoại Kung Fu - Kung Fu League (2018)
    [​IMG]



    Đạo diễn: Lưu Trấn Vĩ
    Diễn viên: Trần Quốc Khôn, Triệu Văn Trác,
    Thể loại: Phim Cổ Trang, Phim Võ Thuật
    Quốc gia: Phim Trung Quốc
    Thời lượng: 105 phút



    Diệp Vấn, Trần Chân, Hoàng Phi Hồng, Hoắc Nguyên Giáp – 4 vị tôn sư võ thuật của Trung Quốc – sẽ cùng góp mặt trong Huyền Thoại Kung Fu. Bốn võ sư, bốn môn phái, đại diện cho bốn thời đại khác nhau gặp nhau và gây ra vô số tình huống dở khóc dở cười. Liệu những rắc rối của thời hiện đại có khiến tứ đại tôn sư lừng danh thiên hạ trong quá khứ phải chùn bước?

    Huyền Thoại Kung Fu là câu chuyện của Phi Hùng – cậu trai bất mãn với tình yêu vì không dám tỏ tình với cô gái mà anh ta thầm thương trộm nhớ bấy lâu nay. Thế rồi anh ta ao ước rằng những vị đại hiệp Diệp Vấn, Trần Chân, Hoàng Phi Hồng, Hoắc Nguyên Giáp có thể xuyên không đến với năm 2018 nhằm cứu vãn cuộc tình. Và với khả năng sáng tạo vô hạn của biên kịch thì 1 phút 30 giây sau là các vị sư phụ kia đã lập tức bay cái vèo đến thời hiện đại và giúp đỡ Phi Hùng chiếm lấy trái tim người con gái anh yêu.


    Screens
    [​IMG]



    MediaInfo:
    Mã:
    Complete name  : G:\Huyen_Thoai_Kung_Fu.mp4
    Format  : MPEG-4
    Format profile  : Base Media
    Codec ID  : isom (isom/iso2/avc1/mp41)
    File size  : 656 MiB
    Duration  : 1 h 42 min
    Overall bit rate mode  : Variable
    Overall bit rate  : 898 kb/s
    Movie name  : 208751973396296
    Writing application  : Lavf56.40.101
    
    Video
    ID  : 1
    Format  : AVC
    Format/Info  : Advanced Video Codec
    Format profile  : High@L3.1
    Format settings  : CABAC / 5 Ref Frames
    Format settings, CABAC  : Yes
    Format settings, ReFrames  : 5 frames
    Codec ID  : avc1
    Codec ID/Info  : Advanced Video Coding
    Duration  : 1 h 42 min
    Bit rate  : 846 kb/s
    Width  : 1 280 pixels
    Height  : 538 pixels
    Display aspect ratio  : 2.40:1
    Original display aspect ratio  : 2.40:1
    Frame rate mode  : Constant
    Frame rate  : 23.810 FPS
    Color space  : YUV
    Chroma subsampling  : 4:2:0
    Bit depth  : 8 bits
    Scan type  : Progressive
    Bits/(Pixel*Frame)  : 0.052
    Stream size  : 618 MiB (94%)
    Title  : Kung.Fu.League.2018.WEB-DL.1080p.2Audio.x264
    Writing library  : x264 core 148
    Language  : Chinese
    Color range  : Limited
    Color primaries  : BT.709
    Transfer characteristics  : BT.709
    Matrix coefficients  : BT.709
    Codec configuration box  : avcC
    
    Audio
    ID  : 2
    Format  : AAC LC SBR PS
    Format/Info  : Advanced Audio Codec Low Complexity with Spectral Band Replication and Parametric Stereo
    Commercial name  : HE-AACv2
    Format settings  : NBC
    Codec ID  : mp4a-40-29
    Duration  : 1 h 42 min
    Duration_LastFrame  : -33 ms
    Bit rate mode  : Variable
    Bit rate  : 48.0 kb/s
    Maximum bit rate  : 2 500 kb/s
    Channel(s)  : 2 channels
    Channel layout  : C
    Sampling rate  : 48.0 kHz
    Frame rate  : 23.438 FPS (2048 SPF)
    Compression mode  : Lossy
    Stream size  : 35.1 MiB (5%)
    Language  : Vietnamese
    


    DOWNLOAD
    Nhấn nút Cảm ơn (dưới chân bài) để thấy link!
     
    KimNga, hlquochung, traitrai and 9 others like this.
  5. kieubangchu

    kieubangchu Well-Known Member

    Tham gia ngày:
    26/12/09
    Bài viết:
    648
    Đã được cảm ơn:
    3,808
    Điểm thành tích:
    93
    Tiền:
    610 CR
    233.Bậc Thầy Võ Thuật - The Final Master (2015)
    [​IMG]



    Đạo diễn: Từ Hạo Phong
    Diễn viên: Liêu Phàm, Tống Giai, Tưởng Văn Lệ,
    Thể loại: Phim Hành động, Phim Võ Thuật
    Quốc gia: Phim Trung Quốc
    Thời lượng: 109 phút



    Bậc Thầy Võ Thuật thuộc thể loại hành động với những màn võ thuật đẹp mắt. Tương truyền rằng Thiên Tân xưa nay vẫn là thủ đô của của võ Thuật, các trường võ thuật danh tiếng vẫn đứng vững cho đến một ngày sự xuất hiện của sư phụ Trần. Bậc Thầy Võ Thuật – The Final Master bám sát hành trình của Trần sư phụ với Vịnh Xuân Quyền đến từ phương Nam, thách thức các võ sư ở năm võ quán nổi danh của Thiên Tân. Từ đó, bậc thầy quyền thế này đã chinh phục được người vợ xinh đẹp, gầy dựng được võ quán của riêng mình. Nhưng không được bao lâu, sóng gió lại kéo đến khiến hai người phải đối mặt với kẻ thù đầy nguy hiểm trong Bậc Thầy Võ Thuật – The Final Master.

    Screens
    [​IMG]



    MediaInfo:
    Mã:
    Complete name  : G:\The_Final_Master_TM.mp4
    Format  : MPEG-4
    Format profile  : Base Media
    Codec ID  : isom (isom/iso2/avc1/mp41)
    File size  : 1.48 GiB
    Duration  : 1 h 49 min
    Overall bit rate mode  : Variable
    Overall bit rate  : 1 933 kb/s
    
    Video
    ID  : 1
    Format  : AVC
    Format/Info  : Advanced Video Codec
    Format profile  : High@L3.1
    Format settings  : CABAC / 4 Ref Frames
    Format settings, CABAC  : Yes
    Format settings, ReFrames  : 4 frames
    Format settings, GOP  : M=1, N=72
    Codec ID  : avc1
    Codec ID/Info  : Advanced Video Coding
    Duration  : 1 h 49 min
    Duration_FirstFrame  : 46 ms
    Bit rate mode  : Variable
    Bit rate  : 1 727 kb/s
    Maximum bit rate  : 5 193 kb/s
    Width  : 1 280 pixels
    Height  : 534 pixels
    Display aspect ratio  : 2.40:1
    Frame rate mode  : Constant
    Frame rate  : 24.000 FPS
    Color space  : YUV
    Chroma subsampling  : 4:2:0
    Bit depth  : 8 bits
    Scan type  : Progressive
    Bits/(Pixel*Frame)  : 0.105
    Stream size  : 1.32 GiB (89%)
    Tagged date  : UTC 2018-12-29 11:49:35
    Codec configuration box  : avcC
    
    Audio
    ID  : 2
    Format  : AAC LC
    Format/Info  : Advanced Audio Codec Low Complexity
    Codec ID  : mp4a-40-2
    Duration  : 1 h 49 min
    Duration_LastFrame  : -9 ms
    Bit rate mode  : Constant
    Bit rate  : 204 kb/s
    Channel(s)  : 2 channels
    Channel layout  : L R
    Sampling rate  : 44.1 kHz
    Frame rate  : 43.066 FPS (1024 SPF)
    Compression mode  : Lossy
    Stream size  : 160 MiB (11%)
    Language  : Vietnamese
    


    DOWNLOAD
    Nhấn nút Cảm ơn (dưới chân bài) để thấy link!
     
    lehuuthao, traitrai, Kaila and 4 others like this.
  6. kieubangchu

    kieubangchu Well-Known Member

    Tham gia ngày:
    26/12/09
    Bài viết:
    648
    Đã được cảm ơn:
    3,808
    Điểm thành tích:
    93
    Tiền:
    610 CR
    234.Quái Vật Venom - Venom (2018)
    [​IMG]



    Đạo diễn: Ruben Fleischer
    Diễn viên: Michelle Williams, Riz Ahmed, Tom Hardy,
    Thể loại: Phim Hành động, Phim Kinh Dị, Phim Viễn Tưởng
    Quốc gia: Phim Mỹ
    Thời lượng: 112 phút



    Venom khi tay phóng viên Eddie Brock (Hardy) bị một loài cộng sinh bí ẩn thâm nhập vào cơ thể, anh buộc phải tìm cách hòa hợp với nó, và dần trở thành Venom để có thể cứu lấy chính bản thân. Quái Vật Venom là phim siêu anh hùng được chuyển thể từ truyện tranh Marvel, xoay quanh nhân vật Eddie Brock – một phóng viên đang điều tra về những vụ việc mờ ám của một tổ chức có tên Life Foundation – đứng đầu là Carlton Drake. Trong một lần đang thu thập các chứng cứ quan trọng tại phòng thí nghiệm của Life Foundation, Eddie Brock vô tình bị nhiễm một loại ký sinh ngoài hành tinh gọi là symbiote. Symbiote này có tên Venom, liên tục thôi thúc và điều khiển Eddie làm những việc mà anh không hề muốn. Vậy là anh vừa phải vật lộn để giành quyền kiểm soát cơ thể, vừa phải chạy trốn khỏi sự truy đuổi của Life Foundation.




    Screens
    [​IMG]



    MediaInfo:
    Mã:
    Complete name  : G:\Venom_TM.mp4
    Format  : MPEG-4
    Format profile  : Base Media
    Codec ID  : isom (isom/iso2/avc1/mp41)
    File size  : 685 MiB
    Duration  : 1 h 52 min
    Overall bit rate  : 854 kb/s
    Movie name  : 756965114670567
    Writing application  : Lavf56.40.101
    
    Video
    ID  : 1
    Format  : AVC
    Format/Info  : Advanced Video Codec
    Format profile  : High@L3.1
    Format settings  : CABAC / 5 Ref Frames
    Format settings, CABAC  : Yes
    Format settings, ReFrames  : 5 frames
    Codec ID  : avc1
    Codec ID/Info  : Advanced Video Coding
    Duration  : 1 h 52 min
    Bit rate  : 800 kb/s
    Width  : 1 280 pixels
    Height  : 534 pixels
    Display aspect ratio  : 2.40:1
    Frame rate mode  : Variable
    Frame rate  : 23.976 (23976/1000) FPS
    Minimum frame rate  : 23.974 FPS
    Maximum frame rate  : 23.981 FPS
    Color space  : YUV
    Chroma subsampling  : 4:2:0
    Bit depth  : 8 bits
    Scan type  : Progressive
    Bits/(Pixel*Frame)  : 0.049
    Stream size  : 642 MiB (94%)
    Writing library  : x264 core 148
    
    Audio
    ID  : 2
    Format  : AAC LC
    Format/Info  : Advanced Audio Codec Low Complexity
    Codec ID  : mp4a-40-2
    Duration  : 1 h 52 min
    Bit rate mode  : Constant
    Bit rate  : 48.0 kb/s
    Channel(s)  : 2 channels
    Channel layout  : L R
    Sampling rate  : 48.0 kHz
    Frame rate  : 46.875 FPS (1024 SPF)
    Compression mode  : Lossy
    Stream size  : 38.5 MiB (6%)
    Language  : Vietnamese
    


    DOWNLOAD
    Nhấn nút Cảm ơn (dưới chân bài) để thấy link!
     
    kreno, quangvu27, Kaila and 9 others like this.
  7. kieubangchu

    kieubangchu Well-Known Member

    Tham gia ngày:
    26/12/09
    Bài viết:
    648
    Đã được cảm ơn:
    3,808
    Điểm thành tích:
    93
    Tiền:
    610 CR
    235.Điệp Viên Không Không Thấy 3: Tái Xuất Giang Hồ - Johnny English Strikes Again (2018)
    [​IMG]



    Diễn viên: Ben Miller, Olga Kurylenko, Rowan Atkinson,
    Thể loại: Phim Hài, Phim Hành động, Phim Phiêu Lưu


    Rowan Atkinson trong vai một gã bỗng dưng trở thành một điệp viên bí mật và phải vượt qua được những thách thức trong thời buổi công nghệ hiện đại để hoàn thành sứ mệnh điều tra kẻ đã tấn công an ninh mạng.

    Screens
    [​IMG]




    MediaInfo:
    Mã:
    Complete name  : G:\Johnny_English_3_TM.mp4
    Format  : MPEG-4
    Format profile  : Base Media
    Codec ID  : isom (isom/iso2/avc1/mp41)
    File size  : 436 MiB
    Duration  : 1 h 28 min
    Overall bit rate  : 688 kb/s
    Movie name  : 571995123245281
    Writing application  : Lavf56.40.101
    
    Video
    ID  : 1
    Format  : AVC
    Format/Info  : Advanced Video Codec
    Format profile  : High@L3.1
    Format settings  : CABAC / 5 Ref Frames
    Format settings, CABAC  : Yes
    Format settings, ReFrames  : 5 frames
    Codec ID  : avc1
    Codec ID/Info  : Advanced Video Coding
    Duration  : 1 h 28 min
    Bit rate  : 634 kb/s
    Width  : 1 280 pixels
    Height  : 536 pixels
    Display aspect ratio  : 2.40:1
    Frame rate mode  : Variable
    Frame rate  : 23.976 (23976/1000) FPS
    Minimum frame rate  : 23.974 FPS
    Maximum frame rate  : 23.981 FPS
    Color space  : YUV
    Chroma subsampling  : 4:2:0
    Bit depth  : 8 bits
    Scan type  : Progressive
    Bits/(Pixel*Frame)  : 0.039
    Stream size  : 402 MiB (92%)
    Writing library  : x264 core 148
    
    
    Audio
    ID  : 2
    Format  : AAC LC
    Format/Info  : Advanced Audio Codec Low Complexity
    Codec ID  : mp4a-40-2
    Duration  : 1 h 28 min
    Bit rate mode  : Constant
    Bit rate  : 48.0 kb/s
    Channel(s)  : 2 channels
    Channel layout  : L R
    Sampling rate  : 48.0 kHz
    Frame rate  : 46.875 FPS (1024 SPF)
    Compression mode  : Lossy
    Stream size  : 30.4 MiB (7%)
    Language  : Vietnamese
    


    DOWNLOAD
    Nhấn nút Cảm ơn (dưới chân bài) để thấy link!
     
    traitrai, Kaila, nimda37 and 7 others like this.
  8. kieubangchu

    kieubangchu Well-Known Member

    Tham gia ngày:
    26/12/09
    Bài viết:
    648
    Đã được cảm ơn:
    3,808
    Điểm thành tích:
    93
    Tiền:
    610 CR
    236.Người Băng 2: Du Hành Thời Gian - Iceman: The Time Traveller (2018
    [​IMG]



    Đạo diễn: La Vĩnh Xương
    Diễn viên: Chân Tử Đan, Huỳnh Thánh Y, Nhậm Đạt Hoa, Vương Bảo Cường,
    Thể loại: Phim Hài, Phim Hành động
    Quốc gia: Phim Trung Quốc
    Nhà sản xuất: China 3D Digital
    Thời lượng: 104 phút


    Người Băng 2: Du Hành Thời Gian tiếp nối chuyến phiêu lưu của một Cẩm y vệ đời nhà Minh – Hạ Anh (Chân Tử Đan đóng), sau khi được giải thoát khỏi lớp băng từ một trận đánh gần 4 thế kỷ trước. Tại Hồng Kông, Người Băng được tái sinh, gặp gỡ và thân thiết với Tiểu Mỹ. Nhưng do là người duy nhất nắm giữ bí mật du hành thời gian, anh bị truy lùng bởi cảnh sát và truyền thông. Anh phải đến Bắc Kinh quay ngược dòng thời gian về lại Minh triều, bằng cách sử dụng khả năng điều khiển Kim Cầu, tìm cách thay đổi lịch sử để bảo vệ những người thân yêu. Tuy nhiên, một cái bẫy đang chờ sẵn khi anh quay về quá khứ. Điều gì sẽ xảy ra khi anh thay đổi lịchm sử?


    Screens
    [​IMG]



    MediaInfo:
    Mã:
    Complete name  : G:\Iceman_The_Time_Traveller_TM.mp4
    Format  : MPEG-4
    Format profile  : Base Media
    Codec ID  : isom (isom/iso2/avc1/mp41)
    File size  : 1.17 GiB
    Duration  : 1 h 27 min
    Overall bit rate mode  : Variable
    Overall bit rate  : 1 918 kb/s
    
    Video
    ID  : 1
    Format  : AVC
    Format/Info  : Advanced Video Codec
    Format profile  : High@L3.1
    Format settings  : CABAC / 4 Ref Frames
    Format settings, CABAC  : Yes
    Format settings, ReFrames  : 4 frames
    Format settings, GOP  : M=1, N=72
    Codec ID  : avc1
    Codec ID/Info  : Advanced Video Coding
    Duration  : 1 h 27 min
    Duration_FirstFrame  : 46 ms
    Bit rate mode  : Variable
    Bit rate  : 1 712 kb/s
    Maximum bit rate  : 5 193 kb/s
    Width  : 1 280 pixels
    Height  : 534 pixels
    Display aspect ratio  : 2.40:1
    Frame rate mode  : Constant
    Frame rate  : 24.000 FPS
    Color space  : YUV
    Chroma subsampling  : 4:2:0
    Bit depth  : 8 bits
    Scan type  : Progressive
    Bits/(Pixel*Frame)  : 0.104
    Stream size  : 1.04 GiB (89%)
    Tagged date  : UTC 2019-01-07 04:26:48
    Codec configuration box  : avcC
    
    Audio
    ID  : 2
    Format  : AAC LC
    Format/Info  : Advanced Audio Codec Low Complexity
    Codec ID  : mp4a-40-2
    Duration  : 1 h 27 min
    Duration_LastFrame  : -21 ms
    Bit rate mode  : Constant
    Bit rate  : 204 kb/s
    Channel(s)  : 2 channels
    Channel layout  : L R
    Sampling rate  : 44.1 kHz
    Frame rate  : 43.066 FPS (1024 SPF)
    Compression mode  : Lossy
    Stream size  : 127 MiB (11%)
    Default  : Yes
    Language  : Vietnamese
    


    DOWNLOAD
    Nhấn nút Cảm ơn (dưới chân bài) để thấy link!
     
    traitrai, Kaila, Heovang007 and 7 others like this.
  9. kieubangchu

    kieubangchu Well-Known Member

    Tham gia ngày:
    26/12/09
    Bài viết:
    648
    Đã được cảm ơn:
    3,808
    Điểm thành tích:
    93
    Tiền:
    610 CR
    237.Đột Kích - The Raid Redemption (2011)
    [​IMG]



    Diễn viên: Ananda George, Iko Uwais, Ray Sahetapy,
    Thể loại: Phim Hình Sự
    Quốc gia: Phim Mỹ
    Đạo diễn: Gareth Evans
    Thời lượng: 101 phút



    Nếu như người Thái nổi tiếng với các tác phẩm võ thuật hành động đình đám như Ong-bak, The Protector, Chocolate, Việt Nam cũng gây được tiếng vang nhất định trong khu vực qua Dòng máu anh hùng, Bẫy rồng thì gần đây, điện ảnh Đông Nam Á lại xôn xao với The Raid: Redemption của điện ảnh Indonesia. Tuy nhiên, bộ phim có sự hợp tác của người Mỹ ở vài vị trí quan trọng trong thành phần đoàn làm phim. Nổi bật nhất là vị trí đạo diễn biên kịch (Gareth Evans), quay phim, sản xuất.

    The Raid: Redemption có cốt truyện cực kỳ đơn giản, dễ xem, dễ hiểu. Cả bộ phim chỉ diễn ra trong một bối cảnh duy nhất, nơi tập trung vô số thành phần bất hảo tại thủ đô Jakarta. Một đội SWAT được phái đến để tiêu diệt băng đảng xã hội đen đang thao túng nhiều hoạt động trong ngành cảnh sát nói riêng và xã hội nói chung. Tại đây, cuộc chiến không khoan nhượng bắt đầu diễn ra. Có thể nói, The Raid: Redemption là một tác phẩm “viết lại” định nghĩa thế nào là thể loại hành động. Suốt từ đầu cho tới cuối phim, các màn võ thuật cận chiến, đấu súng, sử dụng đủ loại vũ khí diễn ra liên tục, hầu như không ngưng nghỉ. Tính chất hành động gần đạt đến độ tinh khiết nhất. Kịch bản The Raid: Redemption chỉ kết hợp thêm một chút thể loại hình sự, ly kỳ. Những yếu tố thừa thãi với nội dung khác như tình yêu, chính trị, lịch sử đều bị gạt bỏ ra ngoài.

    Trong The Raid: Redemption, người Indonesia dĩ nhiên giới thiệu tới khán giả trên toàn thế giới bộ môn võ thuật truyền thống, niềm tự hào của đất nước họ – môn Pencak Silat. Thành công của The Raid: Redemption khiến Hollywood mau chóng nhảy vào cuộc. Người Mỹ đã quyết định remake (làm lại) The Raid: Redemption. Bên cạnh đó, đạo diễn Gareth Evans cũng hứa sẽ thực hiện 2 tập tiếp theo để đưa The Raid: Redemption trở thành một trilogy (bộ ba phần). Phim có những cảnh hành động khá máu me và dãn man, vì vậy nên hạn chế xem cùng trẻ em dưới 16 tuổi.



    Screens
    [​IMG]



    MediaInfo:
    Mã:
    
    Complete name  : G:\The_Raid_1_TM.mp4
    Format  : MPEG-4
    Format profile  : Base Media
    Codec ID  : isom (isom/iso2/avc1/mp41)
    File size  : 575 MiB
    Duration  : 1 h 41 min
    Overall bit rate  : 795 kb/s
    Movie name  : 902373286817617
    Writing application  : Lavf56.40.101
    
    Video
    ID  : 1
    Format  : AVC
    Format/Info  : Advanced Video Codec
    Format profile  : High@L3.1
    Format settings  : CABAC / 5 Ref Frames
    Format settings, CABAC  : Yes
    Format settings, ReFrames  : 5 frames
    Codec ID  : avc1
    Codec ID/Info  : Advanced Video Coding
    Duration  : 1 h 41 min
    Bit rate  : 742 kb/s
    Width  : 1 280 pixels
    Height  : 720 pixels
    Display aspect ratio  : 16:9
    Frame rate mode  : Variable
    Frame rate  : 23.976 (23976/1000) FPS
    Minimum frame rate  : 23.974 FPS
    Maximum frame rate  : 23.981 FPS
    Color space  : YUV
    Chroma subsampling  : 4:2:0
    Bit depth  : 8 bits
    Scan type  : Progressive
    Bits/(Pixel*Frame)  : 0.034
    Stream size  : 536 MiB (93%)
    Writing library  : x264 core 148
    Codec configuration box  : avcC
    
    Audio
    ID  : 2
    Format  : AAC LC SBR PS
    Format/Info  : Advanced Audio Codec Low Complexity with Spectral Band Replication and Parametric Stereo
    Commercial name  : HE-AACv2
    Format settings  : NBC
    Codec ID  : mp4a-40-29
    Duration  : 1 h 41 min
    Duration_LastFrame  : 137 ms
    Bit rate mode  : Constant
    Bit rate  : 48.0 kb/s
    Channel(s)  : 2 channels
    Channel layout  : C
    Sampling rate  : 44.1 kHz
    Frame rate  : 21.533 FPS (2048 SPF)
    Compression mode  : Lossy
    Stream size  : 34.7 MiB (6%)
    Default  : Yes
    Alternate group  : 1
    Language  : Vietnamese
    


    DOWNLOAD
    Nhấn nút Cảm ơn (dưới chân bài) để thấy link!
     
  10. kieubangchu

    kieubangchu Well-Known Member

    Tham gia ngày:
    26/12/09
    Bài viết:
    648
    Đã được cảm ơn:
    3,808
    Điểm thành tích:
    93
    Tiền:
    610 CR
    238.Đột Kích 2 - The Raid 2 (2014)
    [​IMG]



    Diễn viên: Donny Alamsyah, Iko Uwais, Julie Estelle, Yayan Ruhian,
    Thể loại: Phim Võ Thuật
    Quốc gia: Phim Mỹ
    Đạo diễn: Gareth Evans
    Thời lượng: 150 phút


    Phim Đột Kích 2 – The Raid 2 full hd thuyết minh thêm một lần nữa Rama, một cảnh sát tài năng và đầy quả cảm phải khoác lên mình chiếc áo “tội phạm” để triệt phá toàn bộ đường dây Mafia và trả lại sự bình yên cho thành phố. Tiếp nối câu chuyện ở phần 1 những pha võ thuật đỉnh cao cùng cốt truyện chặt chẽ đã tạo nên hình ảnh một con người dũng cảm và can trường sẵn sàng hi sinh để bảo vệ cho gia đình và xã hội.



    Screens
    [​IMG]



    MediaInfo:
    Mã:
    Complete name  : G:\The_Raid_2_TM.mp4
    Format  : MPEG-4
    Format profile  : Base Media
    Codec ID  : isom (isom/iso2/avc1/mp41)
    File size  : 680 MiB
    Duration  : 2 h 30 min
    Overall bit rate  : 632 kb/s
    Movie name  : 120376448950015
    Writing application  : Lavf56.40.101
    
    Video
    ID  : 1
    Format  : AVC
    Format/Info  : Advanced Video Codec
    Format profile  : High@L3.1
    Format settings  : CABAC / 5 Ref Frames
    Format settings, CABAC  : Yes
    Format settings, ReFrames  : 5 frames
    Codec ID  : avc1
    Codec ID/Info  : Advanced Video Coding
    Duration  : 2 h 30 min
    Bit rate  : 578 kb/s
    Width  : 1 280 pixels
    Height  : 528 pixels
    Display aspect ratio  : 2.40:1
    Frame rate mode  : Variable
    Frame rate  : 23.976 FPS
    Minimum frame rate  : 23.974 FPS
    Maximum frame rate  : 23.981 FPS
    Color space  : YUV
    Chroma subsampling  : 4:2:0
    Bit depth  : 8 bits
    Scan type  : Progressive
    Bits/(Pixel*Frame)  : 0.036
    Stream size  : 622 MiB (92%)
    Writing library  : x264 core 148
    Codec configuration box  : avcC
    
    Audio
    ID  : 2
    Format  : AAC LC SBR PS
    Format/Info  : Advanced Audio Codec
    Commercial name  : HE-AACv2
    Format settings  : NBC
    Codec ID  : mp4a-40-29
    Duration  : 2 h 30 min
    Duration_LastFrame  : 161 ms
    Bit rate mode  : Constant
    Bit rate  : 48.0 kb/s
    Channel(s)  : 2 channels
    Channel layout  : C
    Sampling rate  : 44.1 kHz
    Frame rate  : 21.533 FPS (2048 SPF)
    Compression mode  : Lossy
    Stream size  : 51.7 MiB (8%)
    Default  : Yes
    Language  : Vietnamese
    


    DOWNLOAD
    Nhấn nút Cảm ơn (dưới chân bài) để thấy link!
     
  11. Kaila

    Kaila Member

    Tham gia ngày:
    30/8/09
    Bài viết:
    155
    Đã được cảm ơn:
    1
    Điểm thành tích:
    18
    Tiền:
    345 CR
    link folder di thot oi
     
    #211 +1 CR
  12. kieubangchu

    kieubangchu Well-Known Member

    Tham gia ngày:
    26/12/09
    Bài viết:
    648
    Đã được cảm ơn:
    3,808
    Điểm thành tích:
    93
    Tiền:
    610 CR
    239.Bạch Xà: Duyên Khởi - White Snake (2019)
    [​IMG]


    Diễn viên: Trương Triết,
    Thể loại: Phim Hoạt Hình, Phim Viễn Tưởng
    Quốc gia: Phim Trung Quốc
    Đạo diễn: Hoàng Gia Khang
    Thời lượng: 100 phút


    Phim lấy bối cảnh vào cuối thời nhà Đường, khi quốc sư tổ chức phong trào diệt rắn trên toàn Trung Hoa. Bạch Xà đến ám sát quốc sư, nhưng không may cô bị mất trí nhớ và được A Tuyên cứu.

    Trong quá trình tìm lại ký ức cho Bạch Xà, A Tuyên và cô nảy sinh tình cảm. Nhiều tình tiết hấp dẫn diễn ra sau đó khi thân phận của Bạch Xà bị bại lộ.


    Screens:
    [​IMG]

    MediaInfo:
    Mã:
    Complete name  : G:\Mp4 thuyet minh\Bach_Xa_Duyen_Khoi_TM.MP4
    Format  : MPEG-4
    Format profile  : Base Media
    Codec ID  : isom (isom/iso2/avc1/mp41)
    File size  : 1.23 GiB
    Duration  : 1 h 30 min
    Overall bit rate  : 1 937 kb/s
    
    Video
    ID  : 1
    Format  : AVC
    Format/Info  : Advanced Video Codec
    Format profile  : High@L3.1
    Format settings  : CABAC / 4 Ref Frames
    Format settings, CABAC  : Yes
    Format settings, ReFrames  : 4 frames
    Format settings, GOP  : M=1, N=72
    Codec ID  : avc1
    Codec ID/Info  : Advanced Video Coding
    Duration  : 1 h 30 min
    Duration_FirstFrame  : 46 ms
    Bit rate  : 1 731 kb/s
    Width  : 1 280 pixels
    Height  : 538 pixels
    Display aspect ratio  : 2.40:1
    Original display aspect ratio  : 2.40:1
    Frame rate mode  : Constant
    Frame rate  : 24.000 FPS
    Color space  : YUV
    Chroma subsampling  : 4:2:0
    Bit depth  : 8 bits
    Scan type  : Progressive
    Bits/(Pixel*Frame)  : 0.105
    Stream size  : 1.10 GiB (89%)
    Writing library  : x264 core 142 r2455 021c0dc
    Tagged date  : UTC 2019-03-13 06:51:01
    Codec configuration box  : avcC
    
    Audio
    ID  : 2
    Format  : AAC LC
    Format/Info  : Advanced Audio Codec Low Complexity
    Codec ID  : mp4a-40-2
    Duration  : 1 h 30 min
    Duration_LastFrame  : -4 ms
    Bit rate mode  : Constant
    Bit rate  : 204 kb/s
    Channel(s)  : 2 channels
    Channel layout  : L R
    Sampling rate  : 44.1 kHz
    Frame rate  : 43.066 FPS (1024 SPF)
    Compression mode  : Lossy
    Stream size  : 132 MiB (11%)
    Default  : Yes
    Language      : Vietnamese
    


    DOWNLOAD
    Nhấn nút Cảm ơn (dưới chân bài) để thấy link!
     
    Chỉnh sửa cuối: 5/4/19
    lehuuthao, hquan and tanxiphe like this.
  13. kieubangchu

    kieubangchu Well-Known Member

    Tham gia ngày:
    26/12/09
    Bài viết:
    648
    Đã được cảm ơn:
    3,808
    Điểm thành tích:
    93
    Tiền:
    610 CR
    240.Báo Thù - Revenger (2019)
    [​IMG]


    Diễn viên: Bruce Khan, Hee soon Park, Jin seo Yoon,
    Thể loại: Phim Hành động
    Quốc gia: Phim Hàn Quốc
    Đạo diễn: Seung-Won Lee
    Thời lượng: 101 phút



    Những người bị kết án tử hình đang bị giam giữ biệt lập trên đảo Soorado – một nơi không có luật pháp. Carlos Kun (Park Hee-Soon) độc ác thống trị hòn đảo, hắn đối xử với tù nhân một cách tàn bạo. Yool (Bruce Khan), một cựu thám tử đã thâm nhập vào đảo Soorado, bí mật theo dõi một người bị kết án tử hình đang chuẩn bị ra pháp trường…

    Screens:
    [​IMG]


    MediaInfo:
    Mã:
    Complete name  : G:\Mp4 thuyet minh\Revenger_TM.MP4
    Format  : MPEG-4
    Format profile  : Base Media
    Codec ID  : isom (isom/iso2/avc1/mp41)
    File size  : 1.40 GiB
    Duration  : 1 h 41 min
    Overall bit rate mode  : Variable
    Overall bit rate  : 1 967 kb/s
    
    Video
    ID  : 1
    Format  : AVC
    Format/Info  : Advanced Video Codec
    Format profile  : High@L3.1
    Format settings  : CABAC / 4 Ref Frames
    Format settings, CABAC  : Yes
    Format settings, ReFrames  : 4 frames
    Format settings, GOP  : M=1, N=72
    Codec ID  : avc1
    Codec ID/Info  : Advanced Video Coding
    Duration  : 1 h 41 min
    Duration_FirstFrame  : 46 ms
    Bit rate mode  : Variable
    Bit rate  : 1 761 kb/s
    Maximum bit rate  : 5 193 kb/s
    Width  : 1 280 pixels
    Height  : 720 pixels
    Display aspect ratio  : 16:9
    Frame rate mode  : Constant
    Frame rate  : 24.000 FPS
    Color space  : YUV
    Chroma subsampling  : 4:2:0
    Bit depth  : 8 bits
    Scan type  : Progressive
    Bits/(Pixel*Frame)  : 0.080
    Stream size  : 1.25 GiB (90%)
    Tagged date  : UTC 2019-01-20 04:43:55
    Codec configuration box  : avcC
    
    Audio
    ID  : 2
    Format  : AAC LC
    Format/Info  : Advanced Audio Codec Low Complexity
    Codec ID  : mp4a-40-2
    Duration  : 1 h 41 min
    Duration_LastFrame  : -11 ms
    Bit rate mode  : Constant
    Bit rate  : 204 kb/s
    Channel(s)  : 2 channels
    Channel layout  : L R
    Sampling rate  : 44.1 kHz
    Frame rate  : 43.066 FPS (1024 SPF)
    Compression mode  : Lossy
    Stream size  : 149 MiB (10%)
    Language       : Vietnamese
    


    DOWNLOAD
    Nhấn nút Cảm ơn (dưới chân bài) để thấy link!
     
    quangvu27, quantung, tanxiphe and 2 others like this.
  14. kieubangchu

    kieubangchu Well-Known Member

    Tham gia ngày:
    26/12/09
    Bài viết:
    648
    Đã được cảm ơn:
    3,808
    Điểm thành tích:
    93
    Tiền:
    610 CR
    241.Bảy Viên Ngọc Rồng Siêu Cấp: Huyền Thoại Broly - Dragon Ball Super: Broly (2018)
    [​IMG]


    Diễn viên: Aya Hisakawa, Masako nozawa, Ryō Horikawa,
    Thể loại: Phim Hoạt Hình, Phim Phiêu Lưu
    Quốc gia: Phim Nhật Bản
    Đạo diễn: Tatsuya Nagamine
    Thời lượng: 100 phút


    Dragon Ball Super: Broly là phần phim lẻ thứ 20 của thương hiệu nổi tiếng này với sự xuất hiện của Super Saiyan huyền thoại Broly vô cùng bá đạo.

    Tại Giải đấu sức mạnh, Goku và Vegeta đụng độ Broly – người Saiyan có quá khứ bí ẩn cùng chỉ số sức mạnh cao đột biến. Thậm chí dù ở trạng thái người thường, hắn vẫn có thể thản nhiên đánh bại Vegeta và Goku khi họ đã biến hình Super Saiyan…

    Screens:
    [​IMG]


    MediaInfo:
    Mã:
    Complete name  : G:\Mp4 thuyet minh\Dragon_Ball_Super_Broly_TM.MP4
    Format  : MPEG-4
    Format profile  : Base Media
    Codec ID  : isom (isom/iso2/avc1/mp41)
    File size  : 3.55 GiB
    Duration  : 1 h 40 min
    Overall bit rate  : 5 080 kb/s
    
    Video
    ID  : 1
    Format  : AVC
    Format/Info  : Advanced Video Codec
    Format profile  : High@L4
    Format settings  : CABAC / 4 Ref Frames
    Format settings, CABAC  : Yes
    Format settings, ReFrames  : 4 frames
    Format settings, GOP  : M=1, N=72
    Codec ID  : avc1
    Codec ID/Info  : Advanced Video Coding
    Duration  : 1 h 40 min
    Duration_FirstFrame  : 46 ms
    Bit rate  : 4 862 kb/s
    Width  : 1 920 pixels
    Height  : 1 080 pixels
    Display aspect ratio  : 16:9
    Frame rate mode  : Constant
    Frame rate  : 24.000 FPS
    Color space  : YUV
    Chroma subsampling  : 4:2:0
    Bit depth  : 8 bits
    Scan type  : Progressive
    Bits/(Pixel*Frame)  : 0.098
    Stream size  : 3.37 GiB (95%)
    Writing library  : x264 core 142 r2455 021c0dc
    Encoding settings  : cabac=1 / ref=4 / deblock=1:2:2 / analyse=0x3:0x113 / me=hex / subme=2 / psy=1 / psy_rd=1.00:0.00 / mixed_ref=1 / me_range=16 / chroma_me=1 / trellis=0 / 8x8dct=1 / cqm=0 / deadzone=21,11 / fast_pskip=1 / chroma_qp_offset=0 / threads=36 / lookahead_threads=8 / sliced_threads=0 / nr=0 / decimate=1 / interlaced=0 / bluray_compat=0 / constrained_intra=0 / bframes=0 / weightp=2 / keyint=72 / keyint_min=7 / scenecut=0 / intra_refresh=0 / rc_lookahead=40 / rc=abr / mbtree=1 / bitrate=4862 / ratetol=1.0 / qcomp=0.60 / qpmin=10 / qpmax=51 / qpstep=4 / ip_ratio=0.91 / aq=1:1.00
    Tagged date  : UTC 2019-03-18 04:51:26
    Codec configuration box  : avcC
    
    Audio
    ID  : 2
    Format  : AAC LC
    Format/Info  : Advanced Audio Codec Low Complexity
    Codec ID  : mp4a-40-2
    Duration  : 1 h 40 min
    Duration_LastFrame  : -3 ms
    Bit rate mode  : Constant
    Bit rate  : 256 kb/s
    Channel(s)  : 2 channels
    Channel layout  : L R
    Sampling rate  : 44.1 kHz
    Frame rate  : 43.066 FPS (1024 SPF)
    Compression mode  : Lossy
    Stream size  : 183 MiB (5%)
    Language       : Vietnamese
    


    DOWNLOAD
    Nhấn nút Cảm ơn (dưới chân bài) để thấy link!
     
    hquan, traitrai, tanxiphe and 2 others like this.
  15. kieubangchu

    kieubangchu Well-Known Member

    Tham gia ngày:
    26/12/09
    Bài viết:
    648
    Đã được cảm ơn:
    3,808
    Điểm thành tích:
    93
    Tiền:
    610 CR
    242.Anh Em Nhà Grimsby - The Brothers Grimsby (2016)
    [​IMG]


    Diễn viên: Mark Strong, Rebel Wilson, Sacha Baron Cohen,
    Thể loại: Phim Hài, Phim Hành động
    Quốc gia: Phim Mỹ
    Đạo diễn: Louis Leterrier
    Thời lượng: 83 phút


    Anh Em Nhà Grimsby phim kể về cuộc phối hợp đầy mạo hiểm và các tình tiết vui nhộn của 2 anh em Hooligan nhà Grimsby và đội điệp viên cao cấp…

    Screens:
    [​IMG]


    Mediainfo:
    Mã:
    Complete name  : G:\Mp4 thuyet minh\Anh_Em_Grimsby_TM.MP4
    Format  : MPEG-4
    Format profile  : Base Media / Version 2
    Codec ID  : mp42 (isom/mp42)
    File size  : 907 MiB
    Duration  : 1 h 23 min
    Overall bit rate mode  : Variable
    Overall bit rate  : 1 525 kb/s
    Encoded date  : UTC 2016-12-24 12:27:18
    Tagged date  : UTC 2016-12-24 12:27:18
    gsst  : 0
    gstd  : 4992033
    
    Video
    ID  : 1
    Format  : AVC
    Format/Info  : Advanced Video Codec
    Format profile  : High@L3.1
    Format settings  : CABAC / 1 Ref Frames
    Format settings, CABAC  : Yes
    Format settings, ReFrames  : 1 frame
    Format settings, GOP  : M=1, N=60
    Codec ID  : avc1
    Codec ID/Info  : Advanced Video Coding
    Duration  : 1 h 23 min
    Bit rate  : 1 330 kb/s
    Maximum bit rate  : 6 565 kb/s
    Width  : 1 280 pixels
    Height  : 534 pixels
    Display aspect ratio  : 2.40:1
    Frame rate mode  : Constant
    Frame rate  : 23.976 (24000/1001) FPS
    Color space  : YUV
    Chroma subsampling  : 4:2:0
    Bit depth  : 8 bits
    Scan type  : Progressive
    Bits/(Pixel*Frame)  : 0.081
    Stream size  : 792 MiB (87%)
    Tagged date  : UTC 2016-12-24 12:28:44
    Color range  : Limited
    Color primaries  : BT.709
    Transfer characteristics  : BT.709
    Matrix coefficients  : BT.709
    Codec configuration box  : avcC
    
    Audio
    ID  : 2
    Format  : AAC LC
    Format/Info  : Advanced Audio Codec Low Complexity
    Codec ID  : mp4a-40-2
    Duration  : 1 h 23 min
    Bit rate mode  : Variable
    Bit rate  : 192 kb/s
    Maximum bit rate  : 203 kb/s
    Channel(s)  : 2 channels
    Channel layout  : L R
    Sampling rate  : 44.1 kHz
    Frame rate  : 43.066 FPS (1024 SPF)
    Compression mode  : Lossy
    Stream size  : 114 MiB (13%)
    Title  : IsoMedia File Produced by Google, 5-11-2011
    Language  : Vietnamese
    

    DOWNLOAD
    Nhấn nút Cảm ơn (dưới chân bài) để thấy link!
     
    traitrai, coffethang and lenhhoxung like this.
  16. kieubangchu

    kieubangchu Well-Known Member

    Tham gia ngày:
    26/12/09
    Bài viết:
    648
    Đã được cảm ơn:
    3,808
    Điểm thành tích:
    93
    Tiền:
    610 CR
    243.Tà Không Thắng Chính - Hidden Man (2018)
    [​IMG]



    Diễn viên: Eddie Peng, Fan Liao, Yun Zhou,
    Thể loại: Phim Hành động, Phim Hình Sự
    Quốc gia: Phim Trung Quốc
    Đạo diễn: Wen Jiang
    Thời lượng: 137 phút


    Tà Không Thắng Chính là phim điện ảnh lấy bối cảnh những năm 30 thời kỳ quân phiệt hỗn chiến ở Trung Quốc. Chứng kiến sư huynh Tiềm Long (Liêu Phàm) cấu kết với Nhật Bản giết hại cả nhà sư phụ, Lý Thiên Nhiên (Bành Vu Yến) may mắn thoát thân và được một vị bác sĩ người Mỹ cứu giúp. Sang Mỹ, Thiên Nhiên vốn có thiên phú về võ thuật, anh chàng được tham gia huấn luyện đặc công và sau đó anh trở về Trung Quốc để báo thù.

    Screens:
    [​IMG]


    Mediainfo:
    Mã:
    Complete name  : G:\Mp4 thuyet minh\Hidden_Man_TM.MP4
    Format  : MPEG-4
    Format profile  : Base Media
    Codec ID  : isom (isom/iso2/avc1/mp41)
    File size  : 3.98 GiB
    Duration  : 2 h 17 min
    Overall bit rate mode  : Variable
    Overall bit rate  : 4 157 kb/s
    
    Video
    ID  : 1
    Format  : AVC
    Format/Info  : Advanced Video Codec
    Format profile  : High@L4
    Format settings  : CABAC / 4 Ref Frames
    Format settings, CABAC  : Yes
    Format settings, ReFrames  : 4 frames
    Format settings, GOP  : M=1, N=72
    Codec ID  : avc1
    Codec ID/Info  : Advanced Video Coding
    Duration  : 2 h 17 min
    Duration_FirstFrame  : 46 ms
    Bit rate mode  : Variable
    Bit rate  : 3 899 kb/s
    Maximum bit rate  : 11.8 Mb/s
    Width  : 1 920 pixels
    Height  : 804 pixels
    Display aspect ratio  : 2.40:1
    Frame rate mode  : Constant
    Frame rate  : 24.000 FPS
    Color space  : YUV
    Chroma subsampling  : 4:2:0
    Bit depth  : 8 bits
    Scan type  : Progressive
    Bits/(Pixel*Frame)  : 0.105
    Stream size  : 3.74 GiB (94%)
    Tagged date  : UTC 2019-03-19 06:56:14
    Codec configuration box  : avcC
    
    Audio
    ID  : 2
    Format  : AAC LC
    Format/Info  : Advanced Audio Codec Low Complexity
    Codec ID  : mp4a-40-2
    Duration  : 2 h 17 min
    Duration_LastFrame  : -4 ms
    Bit rate mode  : Constant
    Bit rate  : 256 kb/s
    Channel(s)  : 2 channels
    Channel layout  : L R
    Sampling rate  : 44.1 kHz
    Frame rate  : 43.066 FPS (1024 SPF)
    Compression mode  : Lossy
    Stream size  : 251 MiB (6%)
    Default  : Yes
    Language     : Vietnamese
    


    DOWNLOAD
    Nhấn nút Cảm ơn (dưới chân bài) để thấy link!
     
  17. kieubangchu

    kieubangchu Well-Known Member

    Tham gia ngày:
    26/12/09
    Bài viết:
    648
    Đã được cảm ơn:
    3,808
    Điểm thành tích:
    93
    Tiền:
    610 CR
    244.Mật Vụ Giải Cứu - Hunter Killer (2018)
    [​IMG]




    Diễn viên: Common, Gary Oldman, Gerard Butler,
    Thể loại: Phim Hành động
    Quốc gia: Phim Mỹ
    Đạo diễn: Donovan Marsh
    Thời lượng: 122 phút



    Mật Vụ Giải Cứu kể về âm mưu bắt cóc Tổng thống Nga bởi một vị tướng phản trắc. Để giải cứu nhà lãnh đạo của Nga cũng như ngăn ngừa xung đột giữa hai nước, thuyền trưởng tàu ngầm Mỹ Joe Glass đã phải hợp lực cùng đội Đặc nhiệm Hải quân Mỹ để thực hiện công cuộc cứu nguy căng thẳng đến nghẹt thở

    Screens
    [​IMG]



    MediaInfo:
    Mã:
    Complete name  : G:\Mp4 thuyet minh\Hunter_Killer_TM.MP4
    Format  : MPEG-4
    Format profile  : Base Media
    Codec ID  : isom (isom/iso2/avc1/mp41)
    File size  : 1.64 GiB
    Duration  : 2 h 1 min
    Overall bit rate mode  : Variable
    Overall bit rate  : 1 930 kb/s
    
    Video
    ID  : 1
    Format  : AVC
    Format/Info  : Advanced Video Codec
    Format profile  : High@L3.1
    Format settings  : CABAC / 4 Ref Frames
    Format settings, CABAC  : Yes
    Format settings, ReFrames  : 4 frames
    Format settings, GOP  : M=1, N=72
    Codec ID  : avc1
    Codec ID/Info  : Advanced Video Coding
    Duration  : 2 h 1 min
    Duration_FirstFrame  : 46 ms
    Bit rate mode  : Variable
    Bit rate  : 1 726 kb/s
    Maximum bit rate  : 5 193 kb/s
    Width  : 1 280 pixels
    Height  : 536 pixels
    Display aspect ratio  : 2.40:1
    Original display aspect ratio  : 30.570
    Frame rate mode  : Constant
    Frame rate  : 24.000 FPS
    Color space  : YUV
    Chroma subsampling  : 4:2:0
    Bit depth  : 8 bits
    Scan type  : Progressive
    Bits/(Pixel*Frame)  : 0.105
    Stream size  : 1.47 GiB (89%)
    Tagged date  : UTC 2019-01-16 08:09:56
    Codec configuration box  : avcC
    
    Audio
    ID  : 2
    Format  : AAC LC
    Format/Info  : Advanced Audio Codec Low Complexity
    Codec ID  : mp4a-40-2
    Duration  : 2 h 1 min
    Duration_LastFrame  : -5 ms
    Bit rate mode  : Constant
    Bit rate  : 204 kb/s
    Channel(s)  : 2 channels
    Channel layout  : L R
    Sampling rate  : 44.1 kHz
    Frame rate  : 43.066 FPS (1024 SPF)
    Compression mode  : Lossy
    Stream size  : 178 MiB (11%)
    Default  : Yes
    

    DOWNLOAD
    Nhấn nút Cảm ơn (dưới chân bài) để thấy link!
     
    tomd and kydzay like this.
  18. kieubangchu

    kieubangchu Well-Known Member

    Tham gia ngày:
    26/12/09
    Bài viết:
    648
    Đã được cảm ơn:
    3,808
    Điểm thành tích:
    93
    Tiền:
    610 CR
    245.Hỗn Số Tử Thần - Knowing (2013)
    [​IMG]


    Diễn viên: Chandler Canterbury, Nicolas Cage, Rose Byrne,
    Thể loại: Phim Viễn Tưởng
    Quốc gia: Phim Mỹ
    Đạo diễn: Alex Proyas
    Thời lượng: 121 phút



    Hỗn Số Tử Thần – Knowing là một bộ phim hành động viễn tưởng xoay quanh câu chuyện về quá trình giải mã bức tranh có những chữ số kì bí của hai cha con giáo sư John Koestler và Caleb Koesler. Trong phim Hỗn Số Tử Thần – Knowing người con là Caleb Koesler đã vô tình tìm thấy bức tranh từ năm 1959 với những con số kì lạ mà một nữ sinh đã để lại và từ đó cuộc phiêu lưu để giải mã bức tranh của cả hai cha con bắt đầu. Liệu họ có tìm ra được sự thật đằng sau bức tranh bí ẩn ấy hay không ?

    Screens:
    [​IMG]

    Mediainfo:
    Mã:
    Complete name  : G:\Mp4 thuyet minh\Knowing_TM.MP4
    Format  : MPEG-4
    Format profile  : Base Media
    Codec ID  : isom (isom/iso2/avc1/mp41)
    File size  : 1.64 GiB
    Duration  : 2 h 1 min
    Overall bit rate mode  : Variable
    Overall bit rate  : 1 929 kb/s
    
    Video
    ID  : 1
    Format  : AVC
    Format/Info  : Advanced Video Codec
    Format profile  : High@L3.1
    Format settings  : CABAC / 4 Ref Frames
    Format settings, CABAC  : Yes
    Format settings, ReFrames  : 4 frames
    Format settings, GOP  : M=1, N=72
    Codec ID  : avc1
    Codec ID/Info  : Advanced Video Coding
    Duration  : 2 h 1 min
    Duration_FirstFrame  : 46 ms
    Bit rate mode  : Variable
    Bit rate  : 1 723 kb/s
    Maximum bit rate  : 5 193 kb/s
    Width  : 1 280 pixels
    Height  : 544 pixels
    Display aspect ratio  : 2.35:1
    Frame rate mode  : Constant
    Frame rate  : 24.000 FPS
    Color space  : YUV
    Chroma subsampling  : 4:2:0
    Bit depth  : 8 bits
    Scan type  : Progressive
    Bits/(Pixel*Frame)  : 0.103
    Stream size  : 1.46 GiB (89%)
    Tagged date  : UTC 2019-01-10 10:58:41
    Codec configuration box  : avcC
    
    Audio
    ID  : 2
    Format  : AAC LC
    Format/Info  : Advanced Audio Codec Low Complexity
    Codec ID  : mp4a-40-2
    Duration  : 2 h 1 min
    Duration_LastFrame  : -8 ms
    Bit rate mode  : Constant
    Bit rate  : 204 kb/s
    Channel(s)  : 2 channels
    Channel layout  : L R
    Sampling rate  : 44.1 kHz
    Frame rate  : 43.066 FPS (1024 SPF)
    Compression mode  : Lossy
    Stream size  : 177 MiB (11%)
    Language     : Vietnamese
    
    DOWNLOAD
    Nhấn nút Cảm ơn (dưới chân bài) để thấy link!
     
    traitrai cảm ơn bài này.
  19. kieubangchu

    kieubangchu Well-Known Member

    Tham gia ngày:
    26/12/09
    Bài viết:
    648
    Đã được cảm ơn:
    3,808
    Điểm thành tích:
    93
    Tiền:
    610 CR
    246.Kung Fu Monster (2019)
    [​IMG]


    Diễn viên: Châu Đông Vũ, Cổ Thiên Lạc, Trần Học Đông,
    Thể loại: Phim Hài, Phim Hành động, Phim Viễn Tưởng
    Quốc gia: Phim Trung Quốc
    Đạo diễn: Lưu Vĩ Cường
    Thời lượng: 105 phút


    Một nhóm hiệp khách giang hồ lên kế hoạch cướp tài sản của những vị quan tham nhũng để chia cho người nghèo. Thế nhưng chưa kịp hành động thì họ phát hiện ra toàn bộ số bạc đã “không cánh mà bay”. Tưởng rằng chống cự với sự truy sát của triều đình đã vất vả lắm rồi, họ không ngờ còn có một con quái vật vô cùng khủng khiếp đang chờ đợi phía trước…


    Screens:
    [​IMG]

    Mediainfo:
    Mã:
    Complete name  : G:\Mp4 thuyet minh\Kung_Fu_Monster_TM.mp4
    Format  : MPEG-4
    Format profile  : Base Media
    Codec ID  : isom (isom/iso2/avc1/mp41)
    File size  : 3.08 GiB
    Duration  : 1 h 43 min
    Overall bit rate mode  : Variable
    Overall bit rate  : 4 256 kb/s
    Writing application  : Lavf57.83.100
    
    Video
    ID  : 1
    Format  : AVC
    Format/Info  : Advanced Video Codec
    Format profile  : High@L4
    Format settings  : CABAC / 4 Ref Frames
    Format settings, CABAC  : Yes
    Format settings, ReFrames  : 4 frames
    Format settings, GOP  : M=1, N=75
    Codec ID  : avc1
    Codec ID/Info  : Advanced Video Coding
    Duration  : 1 h 43 min
    Duration_FirstFrame  : 46 ms
    Bit rate mode  : Variable
    Bit rate  : 4 050 kb/s
    Maximum bit rate  : 12.2 Mb/s
    Width  : 1 920 pixels
    Height  : 804 pixels
    Display aspect ratio  : 2.40:1
    Frame rate mode  : Constant
    Frame rate  : 25.000 FPS
    Color space  : YUV
    Chroma subsampling  : 4:2:0
    Bit depth  : 8 bits
    Scan type  : Progressive
    Bits/(Pixel*Frame)  : 0.105
    Stream size  : 2.93 GiB (95%)
    Tagged date  : UTC 2019-02-20 06:43:18
    Codec configuration box  : avcC
    
    Audio
    ID  : 2
    Format  : AAC LC
    Format/Info  : Advanced Audio Codec Low Complexity
    Codec ID  : mp4a-40-2
    Duration  : 1 h 43 min
    Duration_LastFrame  : -20 ms
    Bit rate mode  : Constant
    Bit rate  : 204 kb/s
    Channel(s)  : 2 channels
    Channel layout  : L R
    Sampling rate  : 44.1 kHz
    Frame rate  : 43.066 FPS (1024 SPF)
    Compression mode  : Lossy
    Stream size  : 151 MiB (5%)
    Language       : Vietnamese
    

    DOWNLOAD
    Nhấn nút Cảm ơn (dưới chân bài) để thấy link!
     
  20. kieubangchu

    kieubangchu Well-Known Member

    Tham gia ngày:
    26/12/09
    Bài viết:
    648
    Đã được cảm ơn:
    3,808
    Điểm thành tích:
    93
    Tiền:
    610 CR
    247.Sát Thủ Tái Xuất - Polar (2019)
    [​IMG]



    Diễn viên: Katheryn Winnick, Mads Mikkelsen, Vanessa Hudgens,
    Thể loại: Phim Hành động, Phim Hình Sự
    Quốc gia: Phim Mỹ
    Đạo diễn: Jonas Åkerlund
    Thời lượng: 118 phút




    Sát Thủ Tái Xuất kể về một sát thủ quyết định giải nghệ ở vùng đất heo hút gần địa cực, còn kẻ thù của anh vẫn quyết không tha cho kế hoạch nghỉ hưu này. Điều mà khiến khán giả bất ngờ nhất là màn chiến đấu lão luyện và cũng cực kì máu lạnh của gã sát thủ lầm lì Duncan Vizla (Mads Mikkelsen) xem ra rất giống với gã gàn John Wick hay nhân vật sát thủ Solid Snake trong tựa game Metal Gear.

    Một sát thủ có biệt danh Black Kaiser sau khi đánh giết đã đời, quyết định nghỉ hưu an hưởng tuổi già tại nơi khỉ ho cò gáy lạnh lẽo. Tại đây anh gặp một cô gái xinh đẹp Camille (Vanessa Hudgens). Những tưởng cuộc đời sẽ trôi qua êm đẹp như thế cho tới một ngày Duncan khi đang ngủ trong nhà ấm đệm êm thì bị ám sát. Và sau đó là rất nhiều súng đạn, tay chân bị gãy, khói lửa và thậm chí cả một màn bắn súng bằng đầu ngón tay như game.

    Screens:
    [​IMG]


    Mediainfo:
    Mã:
    Complete name  : G:\Mp4 thuyet minh\Polar_TM.MP4
    Format  : MPEG-4
    Format profile  : Base Media
    Codec ID  : isom (isom/iso2/avc1/mp41)
    File size  : 3.45 GiB
    Duration  : 1 h 58 min
    Overall bit rate mode  : Variable
    Overall bit rate  : 4 150 kb/s
    
    Video
    ID  : 1
    Format  : AVC
    Format/Info  : Advanced Video Codec
    Format profile  : High@L4
    Format settings  : CABAC / 4 Ref Frames
    Format settings, CABAC  : Yes
    Format settings, ReFrames  : 4 frames
    Format settings, GOP  : M=1, N=72
    Codec ID  : avc1
    Codec ID/Info  : Advanced Video Coding
    Duration  : 1 h 58 min
    Duration_FirstFrame  : 46 ms
    Bit rate mode  : Variable
    Bit rate  : 3 944 kb/s
    Maximum bit rate  : 11.8 Mb/s
    Width  : 1 920 pixels
    Height  : 1 080 pixels
    Display aspect ratio  : 16:9
    Frame rate mode  : Constant
    Frame rate  : 24.000 FPS
    Color space  : YUV
    Chroma subsampling  : 4:2:0
    Bit depth  : 8 bits
    Scan type  : Progressive
    Bits/(Pixel*Frame)  : 0.079
    Stream size  : 3.28 GiB (95%)
    Tagged date  : UTC 2019-02-10 06:21:40
    Codec configuration box  : avcC
    
    Audio
    ID  : 2
    Format  : AAC LC
    Format/Info  : Advanced Audio Codec Low Complexity
    Codec ID  : mp4a-40-2
    Duration  : 1 h 58 min
    Duration_LastFrame  : -2 ms
    Bit rate mode  : Constant
    Bit rate  : 204 kb/s
    Channel(s)  : 2 channels
    Channel layout  : L R
    Sampling rate  : 44.1 kHz
    Frame rate  : 43.066 FPS (1024 SPF)
    Compression mode  : Lossy
    Stream size  : 173 MiB (5%)
    Language       : Vietnamese
    


    DOWNLOAD
    Nhấn nút Cảm ơn (dưới chân bài) để thấy link!
     

Chia sẻ trang này