[Fshare] Phim HD (mp4) có audio Việt dung lượng nhẹ

Thảo luận trong 'Phim có audio Việt' bắt đầu bởi kieubangchu, 8/12/17.

  1. kieubangchu

    kieubangchu Well-Known Member

    Tham gia ngày:
    26/12/09
    Bài viết:
    637
    Đã được cảm ơn:
    3,600
    Điểm thành tích:
    93
    Tiền:
    598 CR
    248.Ip Man: Cheung Tin Chi (2018) - Diệp Vấn Ngoại Truyện - Trương Thiên Chí
    [​IMG]



    Diễn viên: Dave Bautista, Dương Tử Quỳnh, Liễu Nham, Thích Hành Vũ, Trịnh Gia Dĩnh, Trương Tấn,
    Thể loại: Phim Hành động, Phim Võ Thuật
    Quốc gia: Phim Hồng Kong
    Đạo diễn: Viên Hòa Bình
    Thời lượng: 107 phút



    Diệp Vấn ngoại truyện: Trương Thiên Chí là những sự kiện xảy ra sau Diệp Vấn 3. Sau khi bị đánh bại bởi Diệp Vấn, Trương Thiên Chí (Trương Tấn) quyết định đóng cửa võ đường. Anh cùng con trai mở một tiệm tạp hóa nhỏ để kiếm sống qua ngày, không còn màng tới nghiệp võ…

    Screens:
    [​IMG]

    Mediainfo:
    Mã:
    Complete name  : G:\Mp4 thuyet minh\Diep_Van_Ngoai_Truyen_Truong_Thien_Chi_TM.MP4
    Format  : MPEG-4
    Format profile  : Base Media
    Codec ID  : isom (isom/iso2/avc1/mp41)
    File size  : 3.20 GiB
    Duration  : 1 h 47 min
    Overall bit rate  : 4 263 kb/s
    
    Video
    ID  : 1
    Format  : AVC
    Format/Info  : Advanced Video Codec
    Format profile  : High@L4
    Format settings  : CABAC / 4 Ref Frames
    Format settings, CABAC  : Yes
    Format settings, ReFrames  : 4 frames
    Format settings, GOP  : M=1, N=75
    Codec ID  : avc1
    Codec ID/Info  : Advanced Video Coding
    Duration  : 1 h 47 min
    Duration_FirstFrame  : 46 ms
    Bit rate  : 4 082 kb/s
    Width  : 1 920 pixels
    Height  : 804 pixels
    Display aspect ratio  : 2.40:1
    Original display aspect rat : 2.40:1
    Frame rate mode  : Constant
    Frame rate  : 25.000 FPS
    Color space  : YUV
    Chroma subsampling  : 4:2:0
    Bit depth  : 8 bits
    Scan type  : Progressive
    Bits/(Pixel*Frame)  : 0.106
    Stream size  : 3.04 GiB (95%)
    Writing library  : x264 core 152 r2851 ba24899
    Tagged date  : UTC 2019-02-13 15:08:27
    Codec configuration box  : avcC
    
    Audio
    ID  : 2
    Format  : AAC LC
    Format/Info  : Advanced Audio Codec Low Complexity
    Codec ID  : mp4a-40-2
    Duration  : 1 h 47 min
    Duration_LastFrame  : -13 ms
    Bit rate mode  : Constant
    Bit rate  : 204 kb/s
    Channel(s)  : 2 channels
    Channel layout  : L R
    Sampling rate  : 44.1 kHz
    Frame rate  : 43.066 FPS (1024 SPF)
    Compression mode  : Lossy
    Stream size  : 157 MiB (5%)
    

    DOWNLOAD
    Nhấn nút Cảm ơn (dưới chân bài) để thấy link!
     
    slump30, traitrai and quantung like this.
  2. kieubangchu

    kieubangchu Well-Known Member

    Tham gia ngày:
    26/12/09
    Bài viết:
    637
    Đã được cảm ơn:
    3,600
    Điểm thành tích:
    93
    Tiền:
    598 CR
    249.Tân Vua Hài Kịch - The New King of Comedy (2019)
    [​IMG]


    Diễn viên: Cổ Tĩnh Văn, Trương Toàn Đản, Vương Bảo Cường,
    Thể loại: Phim Hài
    Quốc gia: Phim Trung Quốc
    Đạo diễn: Châu Tinh Trì
    Thời lượng: 91 phút


    Vì đam mê làm diễn viên, vì luôn tin tưởng rằng nếu không ngừng cố gắng thì mình sẽ thành công, Tiểu Mộng dù đã mất mười mấy năm làm diễn viên quần chúng, dù bạn bè người thân liên tục can ngăn, dù đạo diễn qùy lạy xin cô đừng đi đóng phim nữa, cô vẫn luôn kiên trì theo đuổi nghiệp diễn. Tuy nhiên, lòng kiên trì bền bỉ sắt đá đó không ngờ cũng có ngày lung lay khi Tiểu Mộng phát hiện bị bạn trai lừa gạt, cuỗm đi số tiền mà cô đã chắt chiu dành dụm suốt mười mấy năm làm quần chúng. Buồn bã và nản chí, Tiểu Mộng dần từ bỏ ước mơ của mình…

    Screens:
    [​IMG]


    Mediainfo:
    Mã:
    Complete name  : G:\Mp4 thuyet minh\Tan_Vua_Hai_Kich_TM.mp4
    Format  : MPEG-4
    Format profile  : Base Media / Version 2
    Codec ID  : mp42 (isom/iso2/avc1/mp41/mp42)
    File size  : 1.19 GiB
    Duration  : 1 h 30 min
    Overall bit rate mode  : Variable
    Overall bit rate  : 1 881 kb/s
    Writing application  : IsoMedia File produced by RapidVideo.com
    
    Video
    ID  : 1
    Format  : AVC
    Format/Info  : Advanced Video Codec
    Format profile  : High@L3.1
    Format settings  : CABAC / 2 Ref Frames
    Format settings, CABAC  : Yes
    Format settings, ReFrames  : 2 frames
    Codec ID  : avc1
    Codec ID/Info  : Advanced Video Coding
    Duration  : 1 h 30 min
    Bit rate mode  : Variable
    Bit rate  : 1 724 kb/s
    Maximum bit rate  : 2 450 kb/s
    Width  : 1 280 pixels
    Height  : 534 pixels
    Display aspect ratio  : 2.40:1
    Original display aspect rat : 2.40:1
    Frame rate mode  : Constant
    Frame rate  : 24.000 FPS
    Color space  : YUV
    Chroma subsampling  : 4:2:0
    Bit depth  : 8 bits
    Scan type  : Progressive
    Bits/(Pixel*Frame)  : 0.105
    Stream size  : 1.09 GiB (92%)
    Tagged date  : UTC 2019-03-11 15:44:39
    Codec configuration box  : avcC
    
    Audio
    ID  : 2
    Format  : AAC LC
    Format/Info  : Advanced Audio Codec Low Complexity
    Codec ID  : mp4a-40-2
    Duration  : 1 h 30 min
    Source duration  : 1 h 30 min
    Source_Duration_LastFrame  : -1 ms
    Bit rate mode  : Constant
    Bit rate  : 154 kb/s
    Channel(s)  : 2 channels
    Channel layout  : L R
    Sampling rate  : 44.1 kHz
    Frame rate  : 43.066 FPS (1024 SPF)
    Compression mode  : Lossy
    Stream size  : 99.6 MiB (8%)
    Source stream size  : 99.6 MiB (8%)
    Language  : Vietnamese
    


    DOWNLOAD
    Nhấn nút Cảm ơn (dưới chân bài) để thấy link!
     
  3. Giang Thanh

    Giang Thanh Active Member

    Tham gia ngày:
    17/4/11
    Bài viết:
    81
    Đã được cảm ơn:
    126
    Điểm thành tích:
    33
    Tiền:
    609 CR
    Link die rồi chủ thớt ơi :(
     
  4. kieubangchu

    kieubangchu Well-Known Member

    Tham gia ngày:
    26/12/09
    Bài viết:
    637
    Đã được cảm ơn:
    3,600
    Điểm thành tích:
    93
    Tiền:
    598 CR
    Em up lại link mới cho cụ rồi nhé :

    DOWNLOAD
    Nhấn nút Cảm ơn (dưới chân bài) để thấy link!
     
    traitrai, Giang Thanh and sharesorrow like this.
  5. kieubangchu

    kieubangchu Well-Known Member

    Tham gia ngày:
    26/12/09
    Bài viết:
    637
    Đã được cảm ơn:
    3,600
    Điểm thành tích:
    93
    Tiền:
    598 CR
    250.Tước Tích - L.O.R.D: Legend of Ravaging Dynasties (2016)
    [​IMG]




    Đạo diễn: Quách Kính Minh,
    Diễn viên: Dương Mịch, Nghiêm Khoan, Phạm Băng Băng, Ngô Diệc Phàm, Trần Học Đông, Trần Vỹ Đình, Vương Nguyên...
    Quốc gia: Trung Quốc,
    Ngày phát hành: 30/9/2016
    Thời lượng: 118 phút
    Thể loại: Phim viễn tưởng, Phim hoạt hình, Phim thuyết minh, Phim lẻ
    Công ty SX: Le Vision Pictures, Shanghai Zui, Original Force



    Tước Tích là dự án điện ảnh chuyển thể từ tiểu thuyết cùng tên, quy tụ dàn sao tên tuổi như: Phạm Băng Băng, Trần Học Đông, Ngô Diệc Phàm, Dương Mịch, Trần Vỹ Đình, Quách Thái Khiết, Vương Nguyên (TF BOYS)…

    Với chủ đề huyền bí, Tước Tích lấy bối cảnh về thế giới thần thoại Odin có bốn châu lục, mỗi châu lục do một vị pháp sư trấn giữ. Tước Tích là truyền thuyết về lục địa Odin, nơi tồn tại 4 quốc gia có tên Thủy, Hỏa, Địa, Phong.Tình cờ một người ở đại lục Aslan thu phục được kỳ lân – thần thú nổi tiếng trong truyền thuyết. Tước Tích xoay quanh câu chuyện bí ẩn ở đất nước phía Tây Aslan.

    Thiếu niên Kỳ Linh từ một cậu bé chất phác, ngây thơ nhưng được chọn làm Sứ Đồ cho Vương Tước nên bị cuốn vào vòng xoáy tranh giành quyền lực. Mỗi quốc gia đều có hai thế thế lực Vương tước - những kẻ tinh thông hồn thuật và Sứ đồ thiên hạ. Vì tranh đoạt quyền lực, danh dự, những cuộc chiến đã nổ ra. Lúc này, Kỳ Linh bắt đầu được tiếp xúc với những thứ không tưởng – vốn chỉ tồn tại trong thần thoại hay trí tưởng tượng của con người.





    Screens
    [​IMG]





    MediaInfo:
    Mã:
    omplete name  : F:\Tuoc_Tich_TM.MP4
    Format  : MPEG-4
    Format profile  : Base Media
    Codec ID  : isom (isom/iso2/avc1/mp41)
    File size  : 3.42 GiB
    Duration  : 1 h 57 min
    Overall bit rate  : 4 162 kb/s
    
    Video
    ID  : 1
    Format  : AVC
    Format/Info  : Advanced Video Codec
    Format profile  : High@L4
    Format settings  : CABAC / 4 Ref Frames
    Format settings, CABAC  : Yes
    Format settings, ReFrames  : 4 frames
    Format settings, GOP  : M=1, N=72
    Codec ID  : avc1
    Codec ID/Info  : Advanced Video Coding
    Duration  : 1 h 57 min
    Duration_FirstFrame  : 46 ms
    Bit rate  : 3 918 kb/s
    Width  : 1 920 pixels
    Height  : 1 080 pixels
    Display aspect ratio  : 16:9
    Frame rate mode  : Constant
    Frame rate  : 24.000 FPS
    Color space  : YUV
    Chroma subsampling  : 4:2:0
    Bit depth  : 8 bits
    Scan type  : Progressive
    Bits/(Pixel*Frame)  : 0.079
    Stream size  : 3.21 GiB (94%)
    Writing library  : x264 core 152 r2851 ba24899
    Tagged date  : UTC 2018-03-29 05:56:45
    Codec configuration box  : avcC
    
    Audio
    ID  : 2
    Format  : AAC LC
    Format/Info  : Advanced Audio Codec Low Complexity
    Codec ID  : mp4a-40-2
    Duration  : 1 h 57 min
    Duration_LastFrame  : -10 ms
    Bit rate mode  : Constant
    Bit rate  : 256 kb/s
    Channel(s)  : 2 channels
    Channel layout  : L R
    Sampling rate  : 44.1 kHz
    Frame rate  : 43.066 FPS (1024 SPF)
    Compression mode  : Lossy
    Stream size  : 215 MiB (6%)
    Language  : Vietnamese
    
    DOWNLOAD
    Nhấn nút Cảm ơn (dưới chân bài) để thấy link!
     
  6. kieubangchu

    kieubangchu Well-Known Member

    Tham gia ngày:
    26/12/09
    Bài viết:
    637
    Đã được cảm ơn:
    3,600
    Điểm thành tích:
    93
    Tiền:
    598 CR
    251.Bộ Ba Vệ Sĩ - Triple Threat (2019)
    [​IMG]




    Diễn viên: Celina Jade, Iko Uwais, Tony Jaa,
    Thể loại: Phim Hành động, Phim Tâm Lý
    Quốc gia: Phim Mỹ
    Đạo diễn: Jesse V. Johnson
    Thời lượng: 96 phút



    Ba nhân vật chính Payu (Tony Jaa), Jaka (Iko Uwais), Long Fei (Tiger Chen) sẽ kết hợp cùng với nhau trong nhiệm vụ bảo vệ cô gái có cha là tỷ phú, chủ của một tập đoàn lớn. Trong khi đó sát thủ Collin (do Scott Adkins) dẫn đầu một băng nhóm tội phạm được cử đi để hạ sát cô ta….


    Screens
    [​IMG]



    MediaInfo:
    Mã:
    
    Complete name  : F:\Triple Threat_TM.MP4
    Format  : MPEG-4
    Format profile  : Base Media
    Codec ID  : isom (isom/iso2/avc1/mp41)
    File size  : 1.60 GiB
    Duration  : 1 h 35 min
    Overall bit rate  : 2 385 kb/s
    
    Video
    ID  : 1
    Format  : AVC
    Format/Info  : Advanced Video Codec
    Format profile  : High@L3.1
    Format settings  : CABAC / 4 Ref Frames
    Format settings, CABAC  : Yes
    Format settings, ReFrames  : 4 frames
    Format settings, GOP  : M=1, N=72
    Codec ID  : avc1
    Codec ID/Info  : Advanced Video Coding
    Duration  : 1 h 35 min
    Duration_FirstFrame  : 46 ms
    Bit rate  : 2 164 kb/s
    Width  : 1 280 pixels
    Height  : 536 pixels
    Display aspect ratio  : 2.40:1
    Frame rate mode  : Constant
    Frame rate  : 24.000 FPS
    Color space  : YUV
    Chroma subsampling  : 4:2:0
    Bit depth  : 8 bits
    Scan type  : Progressive
    Bits/(Pixel*Frame)  : 0.131
    Stream size  : 1.42 GiB (89%)
    Writing library  : x264 core 152 r2851 ba24899
    Tagged date  : UTC 2019-04-08 03:50:30
    Codec configuration box  : avcC
    
    Audio
    ID  : 2
    Format  : AAC LC
    Format/Info  : Advanced Audio Codec Low Complexity
    Codec ID  : mp4a-40-2
    Duration  : 1 h 35 min
    Duration_LastFrame  : -16 ms
    Bit rate mode  : Constant
    Bit rate  : 256 kb/s
    Channel(s)  : 2 channels
    Channel layout  : L R
    Sampling rate  : 44.1 kHz
    Frame rate  : 43.066 FPS (1024 SPF)
    Compression mode  : Lossy
    Stream size  : 176 MiB (11%)
    Language  : Vietnamese
    
    DOWNLOAD
    Nhấn nút Cảm ơn (dưới chân bài) để thấy link!
     
  7. kieubangchu

    kieubangchu Well-Known Member

    Tham gia ngày:
    26/12/09
    Bài viết:
    637
    Đã được cảm ơn:
    3,600
    Điểm thành tích:
    93
    Tiền:
    598 CR
    252.The Debt Collector (2018)
    [​IMG]




    Đạo diễn: Jesse V. Johnson
    Diễn viên: Louis Mandylor, Scott Adkins, Vladimir Kulich,
    Thể loại: Phim Hành động
    Quốc gia: Phim Anh
    Thời lượng: 95 phút



    Một võ sĩ được đào tạo bài bản sẽ đi làm công việc đòi nợ cho tổ chức đen. Công việc có vẻ dễ dàng, cho đến khi một “khách hàng” kéo anh ta vào một tình huống khó nhằn hơn bao giờ hết…


    Screens
    [​IMG]



    MediaInfo:
    Mã:
    Complete name  : D:\The_Debt_Collector_TM.MP4
    Format  : MPEG-4
    Format profile  : Base Media / Version 2
    Codec ID  : mp42 (isom/iso2/avc1/mp41/mp42)
    File size  : 928 MiB
    Duration  : 1 h 35 min
    Overall bit rate  : 1 352 kb/s
    Movie name  : The Debt Collector 2018 720p BluRay DD5.1 x264-SPEED
    Writing application  : IsoMedia File produced by RapidVideo.com
    
    Video
    ID  : 1
    Format  : AVC
    Format/Info  : Advanced Video Codec
    Format profile  : High@L4.2
    Format settings  : CABAC / 4 Ref Frames
    Format settings, CABAC  : Yes
    Format settings, ReFrames  : 4 frames
    Codec ID  : avc1
    Codec ID/Info  : Advanced Video Coding
    Duration  : 1 h 35 min
    Bit rate  : 1 200 kb/s
    Width  : 1 280 pixels
    Height  : 544 pixels
    Display aspect ratio  : 2.35:1
    Frame rate mode  : Constant
    Frame rate  : 23.976 (24000/1001) FPS
    Color space  : YUV
    Chroma subsampling  : 4:2:0
    Bit depth  : 8 bits
    Scan type  : Progressive
    Bits/(Pixel*Frame)  : 0.072
    Stream size  : 819 MiB (88%)
    Writing library  : x264 core 148 r2748 97eaef2
    Language  : English
    Tagged date  : UTC 2019-04-17 05:10:18
    Codec configuration box  : avcC
    
    Audio
    ID  : 2
    Format  : AAC LC
    Format/Info  : Advanced Audio Codec Low Complexity
    Codec ID  : mp4a-40-2
    Duration  : 1 h 35 min
    Source duration  : 1 h 35 min
    Source_Duration_LastFrame  : -15 ms
    Bit rate mode  : Constant
    Bit rate  : 155 kb/s
    Channel(s)  : 2 channels
    Channel layout  : L R
    Sampling rate  : 44.1 kHz
    Frame rate  : 43.066 FPS (1024 SPF)
    Compression mode  : Lossy
    Stream size  : 106 MiB (11%)
    Source stream size  : 106 MiB (11%)
    Language  : Vietnamese
    
    DOWNLOAD
    Nhấn nút Cảm ơn (dưới chân bài) để thấy link!
     
  8. Giang Thanh

    Giang Thanh Active Member

    Tham gia ngày:
    17/4/11
    Bài viết:
    81
    Đã được cảm ơn:
    126
    Điểm thành tích:
    33
    Tiền:
    609 CR
    Mình vừa down thử Tước tích, giọng thuyết minh hoàn toàn chìm so với tiếng hoa, thật tình ráng nghe lắm mà ko nghe ra dc gì cả, đành bỏ cuộc :D
     

Chia sẻ trang này