[Fshare] Phim HD (mp4) có audio Việt dung lượng nhẹ

Thảo luận trong 'Phim có audio Việt' bắt đầu bởi kieubangchu, 8/12/17.

  1. kieubangchu

    kieubangchu Well-Known Member

    Tham gia ngày:
    26/12/09
    Bài viết:
    648
    Đã được cảm ơn:
    3,805
    Điểm thành tích:
    93
    Tiền:
    610 CR
    248.Ip Man: Cheung Tin Chi (2018) - Diệp Vấn Ngoại Truyện - Trương Thiên Chí
    [​IMG]



    Diễn viên: Dave Bautista, Dương Tử Quỳnh, Liễu Nham, Thích Hành Vũ, Trịnh Gia Dĩnh, Trương Tấn,
    Thể loại: Phim Hành động, Phim Võ Thuật
    Quốc gia: Phim Hồng Kong
    Đạo diễn: Viên Hòa Bình
    Thời lượng: 107 phút



    Diệp Vấn ngoại truyện: Trương Thiên Chí là những sự kiện xảy ra sau Diệp Vấn 3. Sau khi bị đánh bại bởi Diệp Vấn, Trương Thiên Chí (Trương Tấn) quyết định đóng cửa võ đường. Anh cùng con trai mở một tiệm tạp hóa nhỏ để kiếm sống qua ngày, không còn màng tới nghiệp võ…

    Screens:
    [​IMG]

    Mediainfo:
    Mã:
    Complete name  : G:\Mp4 thuyet minh\Diep_Van_Ngoai_Truyen_Truong_Thien_Chi_TM.MP4
    Format  : MPEG-4
    Format profile  : Base Media
    Codec ID  : isom (isom/iso2/avc1/mp41)
    File size  : 3.20 GiB
    Duration  : 1 h 47 min
    Overall bit rate  : 4 263 kb/s
    
    Video
    ID  : 1
    Format  : AVC
    Format/Info  : Advanced Video Codec
    Format profile  : High@L4
    Format settings  : CABAC / 4 Ref Frames
    Format settings, CABAC  : Yes
    Format settings, ReFrames  : 4 frames
    Format settings, GOP  : M=1, N=75
    Codec ID  : avc1
    Codec ID/Info  : Advanced Video Coding
    Duration  : 1 h 47 min
    Duration_FirstFrame  : 46 ms
    Bit rate  : 4 082 kb/s
    Width  : 1 920 pixels
    Height  : 804 pixels
    Display aspect ratio  : 2.40:1
    Original display aspect rat : 2.40:1
    Frame rate mode  : Constant
    Frame rate  : 25.000 FPS
    Color space  : YUV
    Chroma subsampling  : 4:2:0
    Bit depth  : 8 bits
    Scan type  : Progressive
    Bits/(Pixel*Frame)  : 0.106
    Stream size  : 3.04 GiB (95%)
    Writing library  : x264 core 152 r2851 ba24899
    Tagged date  : UTC 2019-02-13 15:08:27
    Codec configuration box  : avcC
    
    Audio
    ID  : 2
    Format  : AAC LC
    Format/Info  : Advanced Audio Codec Low Complexity
    Codec ID  : mp4a-40-2
    Duration  : 1 h 47 min
    Duration_LastFrame  : -13 ms
    Bit rate mode  : Constant
    Bit rate  : 204 kb/s
    Channel(s)  : 2 channels
    Channel layout  : L R
    Sampling rate  : 44.1 kHz
    Frame rate  : 43.066 FPS (1024 SPF)
    Compression mode  : Lossy
    Stream size  : 157 MiB (5%)
    

    DOWNLOAD
    Nhấn nút Cảm ơn (dưới chân bài) để thấy link!
     
    baongoc2909, KimNga, tomkiet and 3 others like this.
  2. kieubangchu

    kieubangchu Well-Known Member

    Tham gia ngày:
    26/12/09
    Bài viết:
    648
    Đã được cảm ơn:
    3,805
    Điểm thành tích:
    93
    Tiền:
    610 CR
    249.Tân Vua Hài Kịch - The New King of Comedy (2019)
    [​IMG]


    Diễn viên: Cổ Tĩnh Văn, Trương Toàn Đản, Vương Bảo Cường,
    Thể loại: Phim Hài
    Quốc gia: Phim Trung Quốc
    Đạo diễn: Châu Tinh Trì
    Thời lượng: 91 phút


    Vì đam mê làm diễn viên, vì luôn tin tưởng rằng nếu không ngừng cố gắng thì mình sẽ thành công, Tiểu Mộng dù đã mất mười mấy năm làm diễn viên quần chúng, dù bạn bè người thân liên tục can ngăn, dù đạo diễn qùy lạy xin cô đừng đi đóng phim nữa, cô vẫn luôn kiên trì theo đuổi nghiệp diễn. Tuy nhiên, lòng kiên trì bền bỉ sắt đá đó không ngờ cũng có ngày lung lay khi Tiểu Mộng phát hiện bị bạn trai lừa gạt, cuỗm đi số tiền mà cô đã chắt chiu dành dụm suốt mười mấy năm làm quần chúng. Buồn bã và nản chí, Tiểu Mộng dần từ bỏ ước mơ của mình…

    Screens:
    [​IMG]


    Mediainfo:
    Mã:
    Complete name  : G:\Mp4 thuyet minh\Tan_Vua_Hai_Kich_TM.mp4
    Format  : MPEG-4
    Format profile  : Base Media / Version 2
    Codec ID  : mp42 (isom/iso2/avc1/mp41/mp42)
    File size  : 1.19 GiB
    Duration  : 1 h 30 min
    Overall bit rate mode  : Variable
    Overall bit rate  : 1 881 kb/s
    Writing application  : IsoMedia File produced by RapidVideo.com
    
    Video
    ID  : 1
    Format  : AVC
    Format/Info  : Advanced Video Codec
    Format profile  : High@L3.1
    Format settings  : CABAC / 2 Ref Frames
    Format settings, CABAC  : Yes
    Format settings, ReFrames  : 2 frames
    Codec ID  : avc1
    Codec ID/Info  : Advanced Video Coding
    Duration  : 1 h 30 min
    Bit rate mode  : Variable
    Bit rate  : 1 724 kb/s
    Maximum bit rate  : 2 450 kb/s
    Width  : 1 280 pixels
    Height  : 534 pixels
    Display aspect ratio  : 2.40:1
    Original display aspect rat : 2.40:1
    Frame rate mode  : Constant
    Frame rate  : 24.000 FPS
    Color space  : YUV
    Chroma subsampling  : 4:2:0
    Bit depth  : 8 bits
    Scan type  : Progressive
    Bits/(Pixel*Frame)  : 0.105
    Stream size  : 1.09 GiB (92%)
    Tagged date  : UTC 2019-03-11 15:44:39
    Codec configuration box  : avcC
    
    Audio
    ID  : 2
    Format  : AAC LC
    Format/Info  : Advanced Audio Codec Low Complexity
    Codec ID  : mp4a-40-2
    Duration  : 1 h 30 min
    Source duration  : 1 h 30 min
    Source_Duration_LastFrame  : -1 ms
    Bit rate mode  : Constant
    Bit rate  : 154 kb/s
    Channel(s)  : 2 channels
    Channel layout  : L R
    Sampling rate  : 44.1 kHz
    Frame rate  : 43.066 FPS (1024 SPF)
    Compression mode  : Lossy
    Stream size  : 99.6 MiB (8%)
    Source stream size  : 99.6 MiB (8%)
    Language  : Vietnamese
    


    DOWNLOAD
    Nhấn nút Cảm ơn (dưới chân bài) để thấy link!
     
    kreno, baongoc2909, KimNga and 5 others like this.
  3. Giang Thanh

    Giang Thanh Active Member

    Tham gia ngày:
    17/4/11
    Bài viết:
    86
    Đã được cảm ơn:
    134
    Điểm thành tích:
    33
    Tiền:
    615 CR
    Link die rồi chủ thớt ơi :(
     
  4. kieubangchu

    kieubangchu Well-Known Member

    Tham gia ngày:
    26/12/09
    Bài viết:
    648
    Đã được cảm ơn:
    3,805
    Điểm thành tích:
    93
    Tiền:
    610 CR
    Em up lại link mới cho cụ rồi nhé :

    DOWNLOAD
    Nhấn nút Cảm ơn (dưới chân bài) để thấy link!
     
  5. kieubangchu

    kieubangchu Well-Known Member

    Tham gia ngày:
    26/12/09
    Bài viết:
    648
    Đã được cảm ơn:
    3,805
    Điểm thành tích:
    93
    Tiền:
    610 CR
    250.Tước Tích - L.O.R.D: Legend of Ravaging Dynasties (2016)
    [​IMG]




    Đạo diễn: Quách Kính Minh,
    Diễn viên: Dương Mịch, Nghiêm Khoan, Phạm Băng Băng, Ngô Diệc Phàm, Trần Học Đông, Trần Vỹ Đình, Vương Nguyên...
    Quốc gia: Trung Quốc,
    Ngày phát hành: 30/9/2016
    Thời lượng: 118 phút
    Thể loại: Phim viễn tưởng, Phim hoạt hình, Phim thuyết minh, Phim lẻ
    Công ty SX: Le Vision Pictures, Shanghai Zui, Original Force



    Tước Tích là dự án điện ảnh chuyển thể từ tiểu thuyết cùng tên, quy tụ dàn sao tên tuổi như: Phạm Băng Băng, Trần Học Đông, Ngô Diệc Phàm, Dương Mịch, Trần Vỹ Đình, Quách Thái Khiết, Vương Nguyên (TF BOYS)…

    Với chủ đề huyền bí, Tước Tích lấy bối cảnh về thế giới thần thoại Odin có bốn châu lục, mỗi châu lục do một vị pháp sư trấn giữ. Tước Tích là truyền thuyết về lục địa Odin, nơi tồn tại 4 quốc gia có tên Thủy, Hỏa, Địa, Phong.Tình cờ một người ở đại lục Aslan thu phục được kỳ lân – thần thú nổi tiếng trong truyền thuyết. Tước Tích xoay quanh câu chuyện bí ẩn ở đất nước phía Tây Aslan.

    Thiếu niên Kỳ Linh từ một cậu bé chất phác, ngây thơ nhưng được chọn làm Sứ Đồ cho Vương Tước nên bị cuốn vào vòng xoáy tranh giành quyền lực. Mỗi quốc gia đều có hai thế thế lực Vương tước - những kẻ tinh thông hồn thuật và Sứ đồ thiên hạ. Vì tranh đoạt quyền lực, danh dự, những cuộc chiến đã nổ ra. Lúc này, Kỳ Linh bắt đầu được tiếp xúc với những thứ không tưởng – vốn chỉ tồn tại trong thần thoại hay trí tưởng tượng của con người.





    Screens
    [​IMG]





    MediaInfo:
    Mã:
    omplete name  : F:\Tuoc_Tich_TM.MP4
    Format  : MPEG-4
    Format profile  : Base Media
    Codec ID  : isom (isom/iso2/avc1/mp41)
    File size  : 3.42 GiB
    Duration  : 1 h 57 min
    Overall bit rate  : 4 162 kb/s
    
    Video
    ID  : 1
    Format  : AVC
    Format/Info  : Advanced Video Codec
    Format profile  : High@L4
    Format settings  : CABAC / 4 Ref Frames
    Format settings, CABAC  : Yes
    Format settings, ReFrames  : 4 frames
    Format settings, GOP  : M=1, N=72
    Codec ID  : avc1
    Codec ID/Info  : Advanced Video Coding
    Duration  : 1 h 57 min
    Duration_FirstFrame  : 46 ms
    Bit rate  : 3 918 kb/s
    Width  : 1 920 pixels
    Height  : 1 080 pixels
    Display aspect ratio  : 16:9
    Frame rate mode  : Constant
    Frame rate  : 24.000 FPS
    Color space  : YUV
    Chroma subsampling  : 4:2:0
    Bit depth  : 8 bits
    Scan type  : Progressive
    Bits/(Pixel*Frame)  : 0.079
    Stream size  : 3.21 GiB (94%)
    Writing library  : x264 core 152 r2851 ba24899
    Tagged date  : UTC 2018-03-29 05:56:45
    Codec configuration box  : avcC
    
    Audio
    ID  : 2
    Format  : AAC LC
    Format/Info  : Advanced Audio Codec Low Complexity
    Codec ID  : mp4a-40-2
    Duration  : 1 h 57 min
    Duration_LastFrame  : -10 ms
    Bit rate mode  : Constant
    Bit rate  : 256 kb/s
    Channel(s)  : 2 channels
    Channel layout  : L R
    Sampling rate  : 44.1 kHz
    Frame rate  : 43.066 FPS (1024 SPF)
    Compression mode  : Lossy
    Stream size  : 215 MiB (6%)
    Language  : Vietnamese
    
    DOWNLOAD
    Nhấn nút Cảm ơn (dưới chân bài) để thấy link!
     
    kreno, hquan, baongoc2909 and 13 others like this.
  6. kieubangchu

    kieubangchu Well-Known Member

    Tham gia ngày:
    26/12/09
    Bài viết:
    648
    Đã được cảm ơn:
    3,805
    Điểm thành tích:
    93
    Tiền:
    610 CR
    251.Bộ Ba Vệ Sĩ - Triple Threat (2019)
    [​IMG]




    Diễn viên: Celina Jade, Iko Uwais, Tony Jaa,
    Thể loại: Phim Hành động, Phim Tâm Lý
    Quốc gia: Phim Mỹ
    Đạo diễn: Jesse V. Johnson
    Thời lượng: 96 phút



    Ba nhân vật chính Payu (Tony Jaa), Jaka (Iko Uwais), Long Fei (Tiger Chen) sẽ kết hợp cùng với nhau trong nhiệm vụ bảo vệ cô gái có cha là tỷ phú, chủ của một tập đoàn lớn. Trong khi đó sát thủ Collin (do Scott Adkins) dẫn đầu một băng nhóm tội phạm được cử đi để hạ sát cô ta….


    Screens
    [​IMG]



    MediaInfo:
    Mã:
    
    Complete name  : F:\Triple Threat_TM.MP4
    Format  : MPEG-4
    Format profile  : Base Media
    Codec ID  : isom (isom/iso2/avc1/mp41)
    File size  : 1.60 GiB
    Duration  : 1 h 35 min
    Overall bit rate  : 2 385 kb/s
    
    Video
    ID  : 1
    Format  : AVC
    Format/Info  : Advanced Video Codec
    Format profile  : High@L3.1
    Format settings  : CABAC / 4 Ref Frames
    Format settings, CABAC  : Yes
    Format settings, ReFrames  : 4 frames
    Format settings, GOP  : M=1, N=72
    Codec ID  : avc1
    Codec ID/Info  : Advanced Video Coding
    Duration  : 1 h 35 min
    Duration_FirstFrame  : 46 ms
    Bit rate  : 2 164 kb/s
    Width  : 1 280 pixels
    Height  : 536 pixels
    Display aspect ratio  : 2.40:1
    Frame rate mode  : Constant
    Frame rate  : 24.000 FPS
    Color space  : YUV
    Chroma subsampling  : 4:2:0
    Bit depth  : 8 bits
    Scan type  : Progressive
    Bits/(Pixel*Frame)  : 0.131
    Stream size  : 1.42 GiB (89%)
    Writing library  : x264 core 152 r2851 ba24899
    Tagged date  : UTC 2019-04-08 03:50:30
    Codec configuration box  : avcC
    
    Audio
    ID  : 2
    Format  : AAC LC
    Format/Info  : Advanced Audio Codec Low Complexity
    Codec ID  : mp4a-40-2
    Duration  : 1 h 35 min
    Duration_LastFrame  : -16 ms
    Bit rate mode  : Constant
    Bit rate  : 256 kb/s
    Channel(s)  : 2 channels
    Channel layout  : L R
    Sampling rate  : 44.1 kHz
    Frame rate  : 43.066 FPS (1024 SPF)
    Compression mode  : Lossy
    Stream size  : 176 MiB (11%)
    Language  : Vietnamese
    
    DOWNLOAD
    Nhấn nút Cảm ơn (dưới chân bài) để thấy link!
     
  7. kieubangchu

    kieubangchu Well-Known Member

    Tham gia ngày:
    26/12/09
    Bài viết:
    648
    Đã được cảm ơn:
    3,805
    Điểm thành tích:
    93
    Tiền:
    610 CR
    252.The Debt Collector (2018)
    [​IMG]




    Đạo diễn: Jesse V. Johnson
    Diễn viên: Louis Mandylor, Scott Adkins, Vladimir Kulich,
    Thể loại: Phim Hành động
    Quốc gia: Phim Anh
    Thời lượng: 95 phút



    Một võ sĩ được đào tạo bài bản sẽ đi làm công việc đòi nợ cho tổ chức đen. Công việc có vẻ dễ dàng, cho đến khi một “khách hàng” kéo anh ta vào một tình huống khó nhằn hơn bao giờ hết…


    Screens
    [​IMG]



    MediaInfo:
    Mã:
    Complete name  : D:\The_Debt_Collector_TM.MP4
    Format  : MPEG-4
    Format profile  : Base Media / Version 2
    Codec ID  : mp42 (isom/iso2/avc1/mp41/mp42)
    File size  : 928 MiB
    Duration  : 1 h 35 min
    Overall bit rate  : 1 352 kb/s
    Movie name  : The Debt Collector 2018 720p BluRay DD5.1 x264-SPEED
    Writing application  : IsoMedia File produced by RapidVideo.com
    
    Video
    ID  : 1
    Format  : AVC
    Format/Info  : Advanced Video Codec
    Format profile  : High@L4.2
    Format settings  : CABAC / 4 Ref Frames
    Format settings, CABAC  : Yes
    Format settings, ReFrames  : 4 frames
    Codec ID  : avc1
    Codec ID/Info  : Advanced Video Coding
    Duration  : 1 h 35 min
    Bit rate  : 1 200 kb/s
    Width  : 1 280 pixels
    Height  : 544 pixels
    Display aspect ratio  : 2.35:1
    Frame rate mode  : Constant
    Frame rate  : 23.976 (24000/1001) FPS
    Color space  : YUV
    Chroma subsampling  : 4:2:0
    Bit depth  : 8 bits
    Scan type  : Progressive
    Bits/(Pixel*Frame)  : 0.072
    Stream size  : 819 MiB (88%)
    Writing library  : x264 core 148 r2748 97eaef2
    Language  : English
    Tagged date  : UTC 2019-04-17 05:10:18
    Codec configuration box  : avcC
    
    Audio
    ID  : 2
    Format  : AAC LC
    Format/Info  : Advanced Audio Codec Low Complexity
    Codec ID  : mp4a-40-2
    Duration  : 1 h 35 min
    Source duration  : 1 h 35 min
    Source_Duration_LastFrame  : -15 ms
    Bit rate mode  : Constant
    Bit rate  : 155 kb/s
    Channel(s)  : 2 channels
    Channel layout  : L R
    Sampling rate  : 44.1 kHz
    Frame rate  : 43.066 FPS (1024 SPF)
    Compression mode  : Lossy
    Stream size  : 106 MiB (11%)
    Source stream size  : 106 MiB (11%)
    Language  : Vietnamese
    
    DOWNLOAD
    Nhấn nút Cảm ơn (dưới chân bài) để thấy link!
     
    td2015, lehuuthao, nhatan113 and 6 others like this.
  8. Giang Thanh

    Giang Thanh Active Member

    Tham gia ngày:
    17/4/11
    Bài viết:
    86
    Đã được cảm ơn:
    134
    Điểm thành tích:
    33
    Tiền:
    615 CR
    Mình vừa down thử Tước tích, giọng thuyết minh hoàn toàn chìm so với tiếng hoa, thật tình ráng nghe lắm mà ko nghe ra dc gì cả, đành bỏ cuộc :D
     
  9. kieubangchu

    kieubangchu Well-Known Member

    Tham gia ngày:
    26/12/09
    Bài viết:
    648
    Đã được cảm ơn:
    3,805
    Điểm thành tích:
    93
    Tiền:
    610 CR
    thuyết minh thì nó như vậy mà bạn, có phải lồng tiếng đâu mà mất tiếng gốc được :D bạn thử phim khác xem :D
     
  10. nghiem201

    nghiem201 New Member

    Tham gia ngày:
    24/12/09
    Bài viết:
    2
    Đã được cảm ơn:
    0
    Điểm thành tích:
    1
    Tiền:
    68 CR
  11. hondadream2

    hondadream2 New Member

    Tham gia ngày:
    1/8/19
    Bài viết:
    5
    Đã được cảm ơn:
    3
    Điểm thành tích:
    3
    Giới tính:
    Nam
    Tiền:
    5 CR
    cảm ơn bạn
     
  12. KimNga

    KimNga Active Member

    Tham gia ngày:
    15/12/13
    Bài viết:
    144
    Đã được cảm ơn:
    157
    Điểm thành tích:
    43
    Tiền:
    743 CR
    Xin bác chủ upload lai loạt phim Diệp Vấn ! Cám ơn bác chủ!
     
  13. kieubangchu

    kieubangchu Well-Known Member

    Tham gia ngày:
    26/12/09
    Bài viết:
    648
    Đã được cảm ơn:
    3,805
    Điểm thành tích:
    93
    Tiền:
    610 CR
    253.Godzila: Chúa Tể Quái Vật - Godzilla: King of the Monsters (2019)
    [​IMG]



    [
    Đạo diễn: Michael Dougherty
    Diễn viên: Kyle Chandler, Millie Bobby Brown, Vera Farmiga,
    Thể loại: Phim Hành động, Phim Phiêu Lưu, Phim Viễn Tưởng
    Quốc gia: Phim Mỹ
    Thời lượng: 132 phút



    Godzila: Chúa Tể Quái Vật tập trung vào cuộc đụng độ các thành viên tổ chức Monarch với những quái thú khổng lồ – Rodan, Mothra, và King Ghidorah. Khi những quái vật huyền thoại trỗi dậy, chúng sẽ tranh giành quyền lực tối cao để thống trị thế giới. Do vậy, loài người sẽ phải đấu tranh để đem lại sự cân bằng trước những hiểm họa diệt vong đó.



    Screens
    [​IMG]



    MediaInfo:
    Mã:
    Complete name  : G:\Godzilla_King_of_the_Monsters.mp4
    Format  : MPEG-4
    Format profile  : Base Media / Version 2
    Codec ID  : mp42 (isom/iso2/avc1/mp41/mp42)
    File size  : 1.29 GiB
    Duration  : 2 h 11 min
    Overall bit rate  : 1 403 kb/s
    Writing application  : IsoMedia File produced by RapidVideo.com
    
    Video
    ID  : 1
    Format  : AVC
    Format/Info  : Advanced Video Codec
    Format profile  : High@L3.1
    Format settings  : CABAC / 1 Ref Frames
    Format settings, CABAC  : Yes
    Format settings, Reference  : 1 frame
    Codec ID  : avc1
    Codec ID/Info  : Advanced Video Coding
    Duration  : 2 h 11 min
    Bit rate  : 1 256 kb/s
    Width  : 1 280 pixels
    Height  : 534 pixels
    Display aspect ratio  : 2.40:1
    Frame rate mode  : Constant
    Frame rate  : 23.976 (24000/1001) FPS
    Color space  : YUV
    Chroma subsampling  : 4:2:0
    Bit depth  : 8 bits
    Scan type  : Progressive
    Bits/(Pixel*Frame)  : 0.077
    Stream size  : 1.16 GiB (90%)
    Title  : ISO Media file produced by Google Inc. Created on: 08/13/2019.
    Writing library  : x264 core 155 r2901 7d0ff22
    Tagged date  : UTC 2019-08-13 13:04:58
    Color range  : Limited
    Color primaries  : BT.709
    Transfer characteristics  : BT.709
    Matrix coefficients  : BT.709
    Codec configuration box  : avcC
    
    Audio
    ID  : 2
    Format  : AAC LC
    Format/Info  : Advanced Audio Codec Low Complexity
    Codec ID  : mp4a-40-2
    Duration  : 2 h 11 min
    Source duration  : 2 h 11 min
    Bit rate mode  : Constant
    Bit rate  : 144 kb/s
    Channel(s)  : 2 channels
    Channel layout  : L R
    Sampling rate  : 44.1 kHz
    Frame rate  : 43.066 FPS (1024 SPF)
    Compression mode  : Lossy
    Stream size  : 136 MiB (10%)
    Source stream size  : 136 MiB (10%)
    Language  : Vietnamese
    


    DOWNLOAD
    Nhấn nút Cảm ơn (dưới chân bài) để thấy link!
     
  14. kieubangchu

    kieubangchu Well-Known Member

    Tham gia ngày:
    26/12/09
    Bài viết:
    648
    Đã được cảm ơn:
    3,805
    Điểm thành tích:
    93
    Tiền:
    610 CR
    254.Dị Nhân : Phượng Hoàng Bóng Tối - X-Men Dark Phoenix (2019)
    [​IMG]



    [
    Đạo diễn: Simon Kinberg
    Diễn viên: James McAvoy, Jennifer Lawrence, Jessica Chastain, Michael Fassbender, Sophie Turner,
    Thể loại: Phim Hành động, Phim Viễn Tưởng
    Quốc gia: Phim Mỹ
    Thời lượng: 114 phút




    Bi thương, chia cắt, đau khổ dường như là lời nguyền gắn với những Dị Nhân. Suốt từ phần đầu tiên tới nay, gần hai mươi năm, khán giả luôn thấy họ vui ít mà buồn nhiều.

    Sau khi chiến thắng được kẻ hùng mạnh Apocalype, giữa lúc mối quan hệ của hai thủ lĩnh tối cao X-Men- giáo sư X và Magneto từng bước hòa hoãn thì nguy cơ mới lại xuất hiện.

    Không phải ai xa lạ, kẻ thù lần này của những dị nhân lại chính là người đồng đội từng kề vai sát cánh vượt qua sinh tử trong trận chiến với Apocalypse – Jean Grey.

    Lúc còn nhỏ, vì chưa biết kiểm soát sức mạnh, Jean Grey đã vô tình gây ra cái chết cho bố mẹ của mình. Tuy nhiên, cô đã không nhớ bất kỳ điều gì vì Giáo sư X đã che giấu đi đoạn ký ức này. Đây cũng là nguyên nhân khiến Jean trở nên thịnh nộ sau khi biết được sự thật.

    Sức mạnh khủng bố của Jean Grey khiến Charles Xavier và Erik Lehnsherr xảy ra mâu thuẫn và một lần nữa, họ trở thành kẻ thù đứng ở hai đầu chiến tuyến. Mọi chuyện càng trở nên trầm trọng hơn khi một dị nhân quen thuộc hy sinh. Đau thương chồng chất đau thương, liệu họ sẽ tìm thấy lối thoát cho cục diện rối ren này chứ?




    Screens
    [​IMG]



    MediaInfo:
    Mã:
    Complete name  : G:\X-Men_ Dark_Phoenix.mp4
    Format  : MPEG-4
    Format profile  : Base Media / Version 2
    Codec ID  : mp42 (isom/iso2/avc1/mp41/mp42)
    File size  : 1.02 GiB
    Duration  : 1 h 53 min
    Overall bit rate  : 1 282 kb/s
    Writing application  : IsoMedia File produced by RapidVideo.com
    
    Video
    ID  : 1
    Format  : AVC
    Format/Info  : Advanced Video Codec
    Format profile  : High@L3.1
    Format settings  : CABAC / 5 Ref Frames
    Format settings, CABAC  : Yes
    Format settings, Reference  : 5 frames
    Format settings, GOP  : N=1
    Codec ID  : avc1
    Codec ID/Info  : Advanced Video Coding
    Duration  : 1 h 53 min
    Bit rate  : 1 152 kb/s
    Width  : 1 280 pixels
    Height  : 536 pixels
    Display aspect ratio  : 2.40:1
    Frame rate mode  : Constant
    Frame rate  : 23.976 (24000/1001) FPS
    Color space  : YUV
    Chroma subsampling  : 4:2:0
    Bit depth  : 8 bits
    Scan type  : Progressive
    Bits/(Pixel*Frame)  : 0.070
    Stream size  : 938 MiB (90%)
    Writing library  : x264 core 148 r2795 aaa9aa8
    Encoding settings  : cabac=1 / ref=5 / deblock=1:0:0 / analyse=0x3:0x113 / me=hex / subme=7 / psy=1 / psy_rd=1.00:0.00 / mixed_ref=1 / me_range=16 / chroma_me=1 / trellis=1 / 8x8dct=1 / cqm=0 / deadzone=21,11 / fast_pskip=1 / chroma_qp_offset=-2 / threads=8 / lookahead_threads=8 / sliced_threads=1 / slices=8 / nr=0 / decimate=1 / interlaced=0 / bluray_compat=0 / constrained_intra=0 / bframes=0 / weightp=2 / keyint=250 / keyint_min=23 / scenecut=40 / intra_refresh=0 / rc=2pass / mbtree=0 / bitrate=1152 / ratetol=1.0 / qcomp=0.60 / qpmin=0 / qpmax=69 / qpstep=4 / cplxblur=20.0 / qblur=0.5 / ip_ratio=1.40 / aq=1:1.00
    Tagged date  : UTC 2019-08-30 09:16:03
    Codec configuration box  : avcC
    
    Audio
    ID  : 2
    Format  : AAC LC
    Format/Info  : Advanced Audio Codec Low Complexity
    Codec ID  : mp4a-40-2
    Duration  : 1 h 53 min
    Source duration  : 1 h 53 min
    Source_Duration_LastFrame  : -7 ms
    Bit rate mode  : Constant
    Bit rate  : 128 kb/s
    Channel(s)  : 2 channels
    Channel layout  : L R
    Sampling rate  : 44.1 kHz
    Frame rate  : 43.066 FPS (1024 SPF)
    Compression mode  : Lossy
    Stream size  : 105 MiB (10%)
    Source stream size  : 105 MiB (10%)
    Language  : Vietnamese
    


    DOWNLOAD
    Nhấn nút Cảm ơn (dưới chân bài) để thấy link!
     
    baongoc2909 and sharesorrow like this.
  15. kieubangchu

    kieubangchu Well-Known Member

    Tham gia ngày:
    26/12/09
    Bài viết:
    648
    Đã được cảm ơn:
    3,805
    Điểm thành tích:
    93
    Tiền:
    610 CR
    254.Dị Nhân : Phượng Hoàng Bóng Tối - X-Men Dark Phoenix (2019)
    [​IMG]



    [
    Đạo diễn: Simon Kinberg
    Diễn viên: James McAvoy, Jennifer Lawrence, Jessica Chastain, Michael Fassbender, Sophie Turner,
    Thể loại: Phim Hành động, Phim Viễn Tưởng
    Quốc gia: Phim Mỹ
    Thời lượng: 114 phút




    Bi thương, chia cắt, đau khổ dường như là lời nguyền gắn với những Dị Nhân. Suốt từ phần đầu tiên tới nay, gần hai mươi năm, khán giả luôn thấy họ vui ít mà buồn nhiều.

    Sau khi chiến thắng được kẻ hùng mạnh Apocalype, giữa lúc mối quan hệ của hai thủ lĩnh tối cao X-Men- giáo sư X và Magneto từng bước hòa hoãn thì nguy cơ mới lại xuất hiện.

    Không phải ai xa lạ, kẻ thù lần này của những dị nhân lại chính là người đồng đội từng kề vai sát cánh vượt qua sinh tử trong trận chiến với Apocalypse – Jean Grey.

    Lúc còn nhỏ, vì chưa biết kiểm soát sức mạnh, Jean Grey đã vô tình gây ra cái chết cho bố mẹ của mình. Tuy nhiên, cô đã không nhớ bất kỳ điều gì vì Giáo sư X đã che giấu đi đoạn ký ức này. Đây cũng là nguyên nhân khiến Jean trở nên thịnh nộ sau khi biết được sự thật.

    Sức mạnh khủng bố của Jean Grey khiến Charles Xavier và Erik Lehnsherr xảy ra mâu thuẫn và một lần nữa, họ trở thành kẻ thù đứng ở hai đầu chiến tuyến. Mọi chuyện càng trở nên trầm trọng hơn khi một dị nhân quen thuộc hy sinh. Đau thương chồng chất đau thương, liệu họ sẽ tìm thấy lối thoát cho cục diện rối ren này chứ?




    Screens
    [​IMG]



    MediaInfo:
    Mã:
    Complete name  : G:\X-Men_ Dark_Phoenix.mp4
    Format  : MPEG-4
    Format profile  : Base Media / Version 2
    Codec ID  : mp42 (isom/iso2/avc1/mp41/mp42)
    File size  : 1.02 GiB
    Duration  : 1 h 53 min
    Overall bit rate  : 1 282 kb/s
    Writing application  : IsoMedia File produced by RapidVideo.com
    
    Video
    ID  : 1
    Format  : AVC
    Format/Info  : Advanced Video Codec
    Format profile  : High@L3.1
    Format settings  : CABAC / 5 Ref Frames
    Format settings, CABAC  : Yes
    Format settings, Reference  : 5 frames
    Format settings, GOP  : N=1
    Codec ID  : avc1
    Codec ID/Info  : Advanced Video Coding
    Duration  : 1 h 53 min
    Bit rate  : 1 152 kb/s
    Width  : 1 280 pixels
    Height  : 536 pixels
    Display aspect ratio  : 2.40:1
    Frame rate mode  : Constant
    Frame rate  : 23.976 (24000/1001) FPS
    Color space  : YUV
    Chroma subsampling  : 4:2:0
    Bit depth  : 8 bits
    Scan type  : Progressive
    Bits/(Pixel*Frame)  : 0.070
    Stream size  : 938 MiB (90%)
    Writing library  : x264 core 148 r2795 aaa9aa8
    Tagged date  : UTC 2019-08-30 09:16:03
    Codec configuration box  : avcC
    
    Audio
    ID  : 2
    Format  : AAC LC
    Format/Info  : Advanced Audio Codec Low Complexity
    Codec ID  : mp4a-40-2
    Duration  : 1 h 53 min
    Source duration  : 1 h 53 min
    Source_Duration_LastFrame  : -7 ms
    Bit rate mode  : Constant
    Bit rate  : 128 kb/s
    Channel(s)  : 2 channels
    Channel layout  : L R
    Sampling rate  : 44.1 kHz
    Frame rate  : 43.066 FPS (1024 SPF)
    Compression mode  : Lossy
    Stream size  : 105 MiB (10%)
    Source stream size  : 105 MiB (10%)
    Language  : Vietnamese
    


    DOWNLOAD
    Nhấn nút Cảm ơn (dưới chân bài) để thấy link!
     
  16. kieubangchu

    kieubangchu Well-Known Member

    Tham gia ngày:
    26/12/09
    Bài viết:
    648
    Đã được cảm ơn:
    3,805
    Điểm thành tích:
    93
    Tiền:
    610 CR
    255.Biệt Đội Siêu Anh Hùng: Hồi Kết - Avengers: Endgame (2019)
    [​IMG]




    [
    Đạo diễn: Anthony Russo
    Diễn viên: Chris Evans, Mark Ruffalo, Robert Downey Jr,
    Thể loại: Phim Hành động, Phim Phiêu Lưu, Phim Viễn Tưởng
    Quốc gia: Phim Mỹ
    Thời lượng: 181 phút


    Cú búng tay của Thanos đã khiến toàn bộ dân số biến mất một nửa. Các siêu anh hùng đánh mất bạn bè, người thân và đánh mất cả chính mình. Bộ sáu Avengers đầu

    tiên tứ tán. Iron Man kẹt lại ngoài không gian, Hawkeye mất tích. Thor, Captain America, Hulk và Black Widow đều chìm trong nỗi đau vô tận vì mất đi những người thân

    yêu. Họ phải làm gì để cứu vãn mọi chuyện ở Avengers: Hồi Kết?

    Screens
    [​IMG]



    MediaInfo:
    Mã:
    Complete name  : G:\Avengers_Endgame.mp4
    Format  : MPEG-4
    Format profile  : Base Media / Version 2
    Codec ID  : mp42 (isom/iso2/avc1/mp41/mp42)
    File size  : 1.54 GiB
    Duration  : 3 h 1 min
    Overall bit rate  : 1 210 kb/s
    Writing application  : IsoMedia File produced by RapidVideo.com
    
    Video
    ID  : 1
    Format  : AVC
    Format/Info  : Advanced Video Codec
    Format profile  : High@L3.1
    Format settings  : CABAC / 1 Ref Frames
    Format settings, CABAC  : Yes
    Format settings, Reference  : 1 frame
    Codec ID  : avc1
    Codec ID/Info  : Advanced Video Coding
    Duration  : 3 h 1 min
    Bit rate  : 1 064 kb/s
    Width  : 1 280 pixels
    Height  : 536 pixels
    Display aspect ratio  : 2.40:1
    Frame rate mode  : Constant
    Frame rate  : 23.976 (24000/1001) FPS
    Color space  : YUV
    Chroma subsampling  : 4:2:0
    Bit depth  : 8 bits
    Scan type  : Progressive
    Bits/(Pixel*Frame)  : 0.065
    Stream size  : 1.35 GiB (88%)
    Title  : ISO Media file produced by Google Inc. Created on: 07/29/2019.
    Writing library  : x264 core 155 r2901 7d0ff22
    Tagged date  : UTC 2019-07-30 09:22:59
    Color range  : Limited
    Color primaries  : BT.709
    Transfer characteristics  : BT.709
    Matrix coefficients  : BT.709
    Codec configuration box  : avcC
    
    Audio
    ID  : 2
    Format  : AAC LC
    Format/Info  : Advanced Audio Codec Low Complexity
    Codec ID  : mp4a-40-2
    Duration  : 3 h 1 min
    Source duration  : 3 h 1 min
    Bit rate mode  : Constant
    Bit rate  : 144 kb/s
    Channel(s)  : 2 channels
    Channel layout  : L R
    Sampling rate  : 44.1 kHz
    Frame rate  : 43.066 FPS (1024 SPF)
    Compression mode  : Lossy
    Stream size  : 187 MiB (12%)
    Source stream size  : 187 MiB (12%)
    Language  : Vietnamese
    


    DOWNLOAD
    Nhấn nút Cảm ơn (dưới chân bài) để thấy link!
     
  17. Vivien01

    Vivien01 Member

    Tham gia ngày:
    18/10/17
    Bài viết:
    42
    Đã được cảm ơn:
    18
    Điểm thành tích:
    8
    Tiền:
    45 CR
    Bác up lại hộ em phim này được không? Cám ơn bác.

    250.Tước Tích - L.O.R.D: Legend of Ravaging Dynasties (2016)
     
  18. kieubangchu

    kieubangchu Well-Known Member

    Tham gia ngày:
    26/12/09
    Bài viết:
    648
    Đã được cảm ơn:
    3,805
    Điểm thành tích:
    93
    Tiền:
    610 CR
    256.Cửu Long Bất Bại - The Invincible Dragon (2019)
    [​IMG]



    Diễn viên: Đặng Lệ Hân, Lưu Tâm Du, Trần Ngọc Vân, Trịnh Gia Dĩnh, Trương Tấn,
    Thể loại: Phim Hành động
    Quốc gia: Phim Hồng Kong
    Đạo diễn: Trần Quả
    Thời lượng: 100 phút



    Một cao nhân với hình xăm rồng liên tục giúp sức cho cảnh sát phá vỡ những vụ án lắt léo. Anh dần trở thành một người được xã hội săn đón và ngưỡng mộ. Chính sự

    đón nhận đó đã vô tình lôi anh vào một vụ án nghiêm trọng hơn bao giờ hết.


    Screens
    [​IMG]



    MediaInfo:
    Mã:
    Complete name  : G:\Cuu_Long_Bat_Bai.mp4
    Format  : MPEG-4
    Format profile  : Base Media
    Codec ID  : isom (isom/iso2/avc1/mp41)
    File size  : 2.81 GiB
    Duration  : 1 h 38 min
    Overall bit rate  : 4 083 kb/s
    
    Video
    ID  : 1
    Format  : AVC
    Format/Info  : Advanced Video Codec
    Format profile  : High@L4
    Format settings  : CABAC / 4 Ref Frames
    Format settings, CABAC  : Yes
    Format settings, Reference  : 4 frames
    Format settings, GOP  : M=1, N=72
    Codec ID  : avc1
    Codec ID/Info  : Advanced Video Coding
    Duration  : 1 h 38 min
    Duration_FirstFrame  : 46 ms
    Bit rate  : 3 918 kb/s
    Width  : 1 920 pixels
    Height  : 804 pixels
    Display aspect ratio  : 2.40:1
    Frame rate mode  : Constant
    Frame rate  : 24.000 FPS
    Color space  : YUV
    Chroma subsampling  : 4:2:0
    Bit depth  : 8 bits
    Scan type  : Progressive
    Bits/(Pixel*Frame)  : 0.106
    Stream size  : 2.67 GiB (95%)
    Writing library  : x264 core 157
    Codec configuration box  : avcC
    
    Audio
    ID  : 2
    Format  : AAC LC
    Format/Info  : Advanced Audio Codec Low Complexity
    Codec ID  : mp4a-40-2
    Duration  : 1 h 38 min
    Duration_LastFrame  : -1 ms
    Bit rate mode  : Constant
    Bit rate  : 204 kb/s
    Channel(s)  : 2 channels
    Channel layout  : L R
    Sampling rate  : 44.1 kHz
    Frame rate  : 43.066 FPS (1024 SPF)
    Compression mode  : Lossy
    Stream size  : 144 MiB (5%)
    Language  : Vietnamese
    

    DOWNLOAD
    Nhấn nút Cảm ơn (dưới chân bài) để thấy link!
     
    Chỉnh sửa cuối: 4/10/19
  19. kieubangchu

    kieubangchu Well-Known Member

    Tham gia ngày:
    26/12/09
    Bài viết:
    648
    Đã được cảm ơn:
    3,805
    Điểm thành tích:
    93
    Tiền:
    610 CR
    257.Quá Nhanh Quá Nguy Hiểm: Hobbs And Shaw - Fast and Furious Presents Hobbs and Shaw (2019)
    [​IMG]



    Diễn viên: Dwayne Johnson, Idris Elba, Jason Statham,
    Thể loại: Phim Hành động
    Quốc gia: Phim Mỹ
    Đạo diễn: David Leitch
    Thời lượng: 137 phút



    Câu chuyện giữa hai người tưởng như không đội trời chung là Đặc vụ An ninh Ngoại giao Mỹ Luke Hobbs và tên tội phạm đánh thuê khét tiếng Deckard Shaw khi họ bất đắc dĩ phải bắt tay hợp tác nhằm ngăn chặn âm mưu của trùm phản diện cực nguy hiểm trong diện bí ẩn Brixton.


    Screens
    [​IMG]



    MediaInfo:
    Mã:
    Complete name  : G:\Fast_and_Furious_Presents _Hobbs_and_Shaw.mp4
    Format  : MPEG-4
    Format profile  : Base Media / Version 2
    Codec ID  : mp42 (isom/iso2/avc1/mp41/mp42)
    File size  : 1.35 GiB
    Duration  : 2 h 15 min
    Overall bit rate  : 1 422 kb/s
    Movie name  : Fast.and.Furious.Presents.Hobbs.and.Shaw.2019.1080p.WEBRip.x264.AAC2.0-SHITBOX
    Writing application  : IsoMedia File produced by RapidVideo.com
    
    Video
    ID  : 1
    Format  : AVC
    Format/Info  : Advanced Video Codec
    Format profile  : High@L3.1
    Format settings  : CABAC / 5 Ref Frames
    Format settings, CABAC  : Yes
    Format settings, Reference  : 5 frames
    Codec ID  : avc1
    Codec ID/Info  : Advanced Video Coding
    Duration  : 2 h 15 min
    Bit rate  : 1 280 kb/s
    Width  : 1 920 pixels
    Height  : 800 pixels
    Display aspect ratio  : 2.40:1
    Frame rate mode  : Constant
    Frame rate  : 23.976 (24000/1001) FPS
    Color space  : YUV
    Chroma subsampling  : 4:2:0
    Bit depth  : 8 bits
    Scan type  : Progressive
    Bits/(Pixel*Frame)  : 0.035
    Stream size  : 1.19 GiB (89%)
    Writing library  : x264 core 148 r2643 5c65704
    Language  : English
    Tagged date  : UTC 2019-09-27 06:37:59
    Codec configuration box  : avcC
    
    Audio
    ID  : 2
    Format  : AAC LC
    Format/Info  : Advanced Audio Codec Low Complexity
    Codec ID  : mp4a-40-2
    Duration  : 2 h 15 min
    Source duration  : 2 h 15 min
    Source_Duration_LastFrame  : -17 ms
    Bit rate mode  : Constant
    Bit rate  : 161 kb/s
    Channel(s)  : 2 channels
    Channel layout  : L R
    Sampling rate  : 44.1 kHz
    Frame rate  : 43.066 FPS (1024 SPF)
    Compression mode  : Lossy
    Stream size  : 156 MiB (11%)
    Source stream size  : 156 MiB (11%)
    Language  : Vietnamese
    

    DOWNLOAD
    Nhấn nút Cảm ơn (dưới chân bài) để thấy link!
     
  20. kieubangchu

    kieubangchu Well-Known Member

    Tham gia ngày:
    26/12/09
    Bài viết:
    648
    Đã được cảm ơn:
    3,805
    Điểm thành tích:
    93
    Tiền:
    610 CR
    258.Sát Thủ John Wick 3: Chuẩn Bị Chiến Tranh - John Wick Chapter 3: Parabellum (2019)
    [​IMG]



    Diễn viên: Halle Berry, Hiroyuki Sanada, Keanu Reeves, Laurence Fishburne, Ruby Rose,
    Thể loại: Phim Hành động
    Quốc gia: Phim Mỹ
    Đạo diễn: Chad Stahelski
    Thời lượng: 130 phút




    Sát Thủ John Wick 3: Chuẩn Bị Chiến Tranh sau khi trở thành “giải thưởng lớn” của giới sát thủ toàn cầu, siêu sát thủ John Wick phải cùng chú chó cưng lên đường chạy trốn. Với giá 14 triệu $, John Wick trở thành mục tiêu béo bở của bất cứ kẻ săn đầu người nào.

    John Wick đang bị săn đuổi bởi một Hợp đồng Mở với giá trị tiền thưởng $14 triệu cho mạng sống của mình khắp thế giới, và bởi vì đã phá luật chơi: giết người ngay trong lãnh địa của Continental Hotel.



    Screens
    [​IMG]



    MediaInfo:
    Mã:
    Complete name  : G:\John_Wick_Chapter_3_Parabellum.mp4
    Format  : MPEG-4
    Format profile  : Base Media / Version 2
    Codec ID  : mp42 (isom/iso2/avc1/mp41/mp42)
    File size  : 1.35 GiB
    Duration  : 2 h 11 min
    Overall bit rate  : 1 473 kb/s
    Writing application  : IsoMedia File produced by RapidVideo.com
    
    Video
    ID  : 1
    Format  : AVC
    Format/Info  : Advanced Video Codec
    Format profile  : High@L3.1
    Format settings  : CABAC / 1 Ref Frames
    Format settings, CABAC  : Yes
    Format settings, Reference  : 1 frame
    Format settings, GOP  : M=1, N=60
    Codec ID  : avc1
    Codec ID/Info  : Advanced Video Coding
    Duration  : 2 h 11 min
    Bit rate  : 1 326 kb/s
    Width  : 1 280 pixels
    Height  : 536 pixels
    Display aspect ratio  : 2.40:1
    Frame rate mode  : Constant
    Frame rate  : 23.976 (24000/1001) FPS
    Color space  : YUV
    Chroma subsampling  : 4:2:0
    Bit depth  : 8 bits
    Scan type  : Progressive
    Bits/(Pixel*Frame)  : 0.081
    Stream size  : 1.21 GiB (90%)
    Title  : ISO Media file produced by Google Inc. Created on: 08/13/2019.
    Writing library  : x264 core 155 r2901 7d0ff22
    Tagged date  : UTC 2019-08-14 07:27:02
    Color range  : Limited
    Color primaries  : BT.709
    Transfer characteristics  : BT.709
    Matrix coefficients  : BT.709
    Codec configuration box  : avcC
    
    Audio
    ID  : 2
    Format  : AAC LC
    Format/Info  : Advanced Audio Codec Low Complexity
    Codec ID  : mp4a-40-2
    Duration  : 2 h 11 min
    Source duration  : 2 h 11 min
    Bit rate mode  : Constant
    Bit rate  : 144 kb/s
    Channel(s)  : 2 channels
    Channel layout  : L R
    Sampling rate  : 44.1 kHz
    Frame rate  : 43.066 FPS (1024 SPF)
    Compression mode  : Lossy
    Stream size  : 136 MiB (10%)
    Source stream size  : 136 MiB (10%)
    Language  : Vietnamese
    

    DOWNLOAD
    Nhấn nút Cảm ơn (dưới chân bài) để thấy link!
     
    sharesorrow and baongoc2909 like this.

Chia sẻ trang này