[MULTI] Rooftop Prince S01 1080p NF WEB-DL DDP2.0 x264 ~ Hoàng tử gác mái (Full Vietsub)

Thảo luận trong 'Phim bộ - Series' bắt đầu bởi adm820, 27/12/19.

Tags
  1. adm820

    adm820 Moderator Thành viên BQT

    Tham gia ngày:
    1/12/10
    Bài viết:
    8,028
    Đã được cảm ơn:
    188,793
    Giới tính:
    Nam
    [​IMG]

    upload_2019-12-27_21-54-1.png

    Mã:
    General
    Unique ID                   : 129405327956246683199935567984001813361 (0x615A8F426E89917A01705694CF440B71)
    
    
    	

    Complete name : C:\Users\Administrator\Downloads\Rooftop Prince S01E20.mkv

    Format : Matroska Format version : Version 4 File size : 3.36 GiB Duration : 1 h 3 min Overall bit rate mode : Variable Overall bit rate : 7 620 kb/s Movie name : Rooftop Prince S01E20 Encoded date : UTC 2019-12-27 14:48:30 Writing application : mkvmerge v41.0.0 ('Smarra') 64-bit Writing library : libebml v1.3.9 + libmatroska v1.5.2 / Lavf58.12.100 Video ID : 1 Format : AVC Format/Info : Advanced Video Codec Format profile : Main@L4 Format settings : CABAC / 3 Ref Frames Format settings, CABAC : Yes Format settings, Reference : 3 frames Codec ID : V_MPEG4/ISO/AVC Duration : 1 h 3 min Bit rate mode : Variable Bit rate : 7 500 kb/s Maximum bit rate : 11.2 Mb/s Width : 1 920 pixels Height : 1 080 pixels Display aspect ratio : 16:9 Frame rate mode : Constant Frame rate : 29.970 (30000/1001) FPS Color space : YUV Chroma subsampling : 4:2:0 Bit depth : 8 bits Scan type : Progressive Bits/(Pixel*Frame) : 0.121 Stream size : 3.30 GiB (98%) Writing library : x264 core 148 r2715 7e75228 Encoding settings : cabac=1 / ref=3 / deblock=1:0:0 / analyse=0x1:0x111 / me=umh / subme=10 / psy=1 / psy_rd=1.00:0.00 / mixed_ref=1 / me_range=24 / chroma_me=1 / trellis=2 / 8x8dct=0 / cqm=0 / deadzone=21,11 / fast_pskip=1 / chroma_qp_offset=-2 / threads=8 / lookahead_threads=1 / sliced_threads=0 / nr=0 / decimate=1 / interlaced=0 / bluray_compat=0 / stitchable=1 / constrained_intra=0 / bframes=2 / b_pyramid=0 / b_adapt=2 / b_bias=0 / direct=3 / weightb=1 / open_gop=0 / weightp=2 / keyint=60 / keyint_min=31 / scenecut=0 / intra_refresh=0 / rc_lookahead=60 / rc=2pass / mbtree=1 / bitrate=7500 / ratetol=1.0 / qcomp=0.50 / qpmin=6 / qpmax=51 / qpstep=4 / cplxblur=20.0 / qblur=0.5 / vbv_maxrate=11250 / vbv_bufsize=15000 / nal_hrd=vbr / filler=0 / ip_ratio=1.40 / aq=1:1.00 Default : Yes Forced : No Audio ID : 2 Format : E-AC-3 Format/Info : Enhanced AC-3 Commercial name : Dolby Digital Plus Codec ID : A_EAC3 Duration : 1 h 3 min Bit rate mode : Constant Bit rate : 128 kb/s Channel(s) : 2 channels Channel layout : L R Sampling rate : 48.0 kHz Frame rate : 31.250 FPS (1536 SPF) Compression mode : Lossy Stream size : 57.8 MiB (2%) Title : Korean [Original] Language : Korean Service kind : Complete Main Default : Yes Forced : No Text #1 ID : 3 Format : UTF-8 Codec ID : S_TEXT/UTF8 Codec ID/Info : UTF-8 Plain Text Duration : 1 h 1 min Bit rate : 45 b/s Count of elements : 505 Stream size : 20.4 KiB (0%) Title : Arabic Language : Arabic Default : No Forced : No Text #2 ID : 4 Format : UTF-8 Codec ID : S_TEXT/UTF8 Codec ID/Info : UTF-8 Plain Text Duration : 1 h 1 min Bit rate : 28 b/s Count of elements : 502 Stream size : 13.1 KiB (0%) Title : English Language : English Default : No Forced : No Text #3 ID : 5 Format : UTF-8 Codec ID : S_TEXT/UTF8 Codec ID/Info : UTF-8 Plain Text Duration : 1 h 1 min Bit rate : 31 b/s Count of elements : 505 Stream size : 14.4 KiB (0%) Title : French Language : French Default : No Forced : No Text #4 ID : 6 Format : UTF-8 Codec ID : S_TEXT/UTF8 Codec ID/Info : UTF-8 Plain Text Duration : 1 h 1 min Bit rate : 76 b/s Count of elements : 503 Stream size : 34.4 KiB (0%) Title : Thai Language : Thai Default : No Forced : No Text #5 ID : 7 Format : UTF-8 Codec ID : S_TEXT/UTF8 Codec ID/Info : UTF-8 Plain Text Duration : 1 h 1 min Bit rate : 29 b/s Count of elements : 505 Stream size : 13.4 KiB (0%) Title : Turkish Language : Turkish Default : No Forced : No Text #6 ID : 8 Format : UTF-8 Codec ID : S_TEXT/UTF8 Codec ID/Info : UTF-8 Plain Text Duration : 1 h 1 min Bit rate : 26 b/s Count of elements : 519 Stream size : 11.9 KiB (0%) Title : Simplified Chinese Default : No Forced : No Text #7 ID : 9 Format : UTF-8 Codec ID : S_TEXT/UTF8 Codec ID/Info : UTF-8 Plain Text Duration : 1 h 1 min Bit rate : 26 b/s Count of elements : 500 Stream size : 12.1 KiB (0%) Title : Traditional Chinese Default : No Forced : No Text #8 ID : 10 Format : UTF-8 Codec ID : S_TEXT/UTF8 Codec ID/Info : UTF-8 Plain Text Duration : 1 h 1 min Bit rate : 37 b/s Count of elements : 523 Stream size : 17.1 KiB (0%) Language : Vietnamese Default : Yes Forced : No
    [​IMG] [​IMG] [​IMG]

    Bộ phim được tải về từ Netflix có sẵn , sub việt

    Link tải


    Nhấn nút Cảm ơn (dưới chân bài) để thấy link!


    Các phim khác từ Netflix
    http://www.hdvietnam.com/tags/adm820-nf/

     
    chumb0, masbocil, toanmai84 and 48 others like this.
  2. hiepmu

    hiepmu Well-Known Member

    Tham gia ngày:
    20/12/09
    Bài viết:
    973
    Đã được cảm ơn:
    353
    2012 em có down bản 720p lởm khởm về để đó chưa có thời gian xem, giờ gặp bác úp phim này là em down về xem ngay và lun vì nét quá kkkkkkkk. Qua down thêm bộ One Spring Night nữa là đẹp :D. Kết em Han Ji Min từ phim Điệp viên Rookie ^^
     

Chia sẻ trang này