[MULTI] [Studio Ghibli] The Wind Rises 2013 2in1 1080p BluRay x264-NTb ~ Gió Nổi (Lồng tiếng/Vietsub)

Thảo luận trong 'Phim hoạt hình' bắt đầu bởi adm820, 1/4/20.

Tags
  1. adm820

    adm820 Moderator Thành viên BQT

    Tham gia ngày:
    1/12/10
    Bài viết:
    7,756
    Đã được cảm ơn:
    181,200
    Giới tính:
    Nam
    [​IMG]

    upload_2020-4-1_10-43-5.png

    Mã:
    General
    
    
    	

    Unique ID : 138764940241428963803000292003460502206 (0x686527C5F2DD7D838BB72DA8711552BE)

    Complete name : D:\Ponyo.on.the.Cliff.by.the.Sea.2008.2in1.1080p.BluRay.DTS-ES.x264-CtrlHD\Ponyo.on.the.Cliff.by.the.Sea.2008.2in1.1080p.BluRay.x264-CtrlHD (1).mkv Format : Matroska Format version : Version 4 File size : 9.90 GiB Duration : 1 h 48 min Overall bit rate : 13.0 Mb/s Movie name : English Edition Encoded date : UTC 2020-04-01 03:32:58 Writing application : mkvmerge v44.0.0 ('Domino') 64-bit Writing library : libebml v1.3.10 + libmatroska v1.5.2 Video ID : 1 Format : AVC Format/Info : Advanced Video Codec Format profile : High@L4.1 Format settings : CABAC / 4 Ref Frames Format settings, CABAC : Yes Format settings, Reference fra : 4 frames Codec ID : V_MPEG4/ISO/AVC Duration : 1 h 48 min Bit rate : 10.6 Mb/s Width : 1 920 pixels Height : 1 038 pixels Display aspect ratio : 1.85:1 Frame rate mode : Constant Frame rate : 23.976 (24000/1001) FPS Color space : YUV Chroma subsampling : 4:2:0 Bit depth : 8 bits Scan type : Progressive Bits/(Pixel*Frame) : 0.222 Stream size : 8.07 GiB (82%) Title : Ponyo on the Cliff by the Sea (2008) Writing library : x264 core 142 r2431kMod ac76440 Encoding settings : cabac=1 / ref=4 / deblock=1:-3:-3 / analyse=0x3:0x133 / me=umh / subme=10 / psy=1 / fade_compensate=0.00 / psy_rd=1.10:0.00 / mixed_ref=1 / me_range=16 / chroma_me=1 / trellis=2 / 8x8dct=1 / cqm=0 / deadzone=21,11 / fast_pskip=0 / chroma_qp_offset=-2 / threads=6 / lookahead_threads=1 / sliced_threads=0 / nr=0 / decimate=0 / interlaced=0 / bluray_compat=0 / constrained_intra=0 / fgo=0 / bframes=10 / b_pyramid=2 / b_adapt=2 / b_bias=0 / direct=3 / weightb=1 / open_gop=0 / weightp=2 / keyint=250 / keyint_min=23 / scenecut=40 / intra_refresh=0 / rc=crf / mbtree=0 / crf=17.0000 / qcomp=0.70 / qpmin=0 / qpmax=69 / qpstep=4 / ip_ratio=1.20 / pb_ratio=1.10 / aq=1:1.00 Language : Japanese Default : Yes Forced : No Audio #1 ID : 2 Format : DTS ES XXCH Format/Info : Digital Theater Systems Commercial name : DTS-ES Discrete Codec ID : A_DTS Duration : 1 h 48 min Bit rate mode : Constant Bit rate : 1 509 kb/s Channel(s) : 6 channels Channel(s)_Original : 7 channels ChannelLayout_Original : C L R Ls Rs Cs LFE Sampling rate : 48.0 kHz Frame rate : 93.750 FPS (512 SPF) Bit depth : 24 bits Compression mode : Lossy Stream size : 1.15 GiB (12%) Title : Japanese 6.1 Audio Language : Japanese Default : No Forced : No Audio #2 ID : 3 Format : AC-3 Format/Info : Audio Coding 3 Commercial name : Dolby Digital Codec ID : A_AC3 Duration : 1 h 48 min Bit rate mode : Constant Bit rate : 256 kb/s Channel(s) : 2 channels Channel layout : L R Sampling rate : 48.0 kHz Frame rate : 31.250 FPS (1536 SPF) Compression mode : Lossy Stream size : 199 MiB (2%) Title : English 2.0 Audio Language : English Service kind : Complete Main Default : No Forced : No Audio #3 ID : 8 Format : AC-3 Format/Info : Audio Coding 3 Commercial name : Dolby Digital Codec ID : A_AC3 Duration : 1 h 48 min Bit rate mode : Constant Bit rate : 640 kb/s Channel(s) : 6 channels Channel layout : L R C LFE Ls Rs Sampling rate : 48.0 kHz Frame rate : 31.250 FPS (1536 SPF) Compression mode : Lossy Stream size : 498 MiB (5%) Title : Lồng tiếng (adm820@hdvietnam sync) Language : Vietnamese Service kind : Complete Main Default : Yes Forced : No Text #1 ID : 4 Format : UTF-8 Codec ID : S_TEXT/UTF8 Codec ID/Info : UTF-8 Plain Text Duration : 1 h 47 min Bit rate : 26 b/s Count of elements : 902 Stream size : 20.6 KiB (0%) Title : English Language : English Default : No Forced : No Text #2 ID : 5 Format : UTF-8 Codec ID : S_TEXT/UTF8 Codec ID/Info : UTF-8 Plain Text Duration : 1 h 42 min Bit rate : 32 b/s Count of elements : 898 Stream size : 24.7 KiB (0%) Title : French Language : French Default : No Forced : No Text #3 ID : 6 Format : UTF-8 Codec ID : S_TEXT/UTF8 Codec ID/Info : UTF-8 Plain Text Duration : 1 h 42 min Bit rate : 36 b/s Count of elements : 888 Stream size : 27.5 KiB (0%) Title : Italian Language : Italian Default : No Forced : No Text #4 ID : 7 Format : UTF-8 Codec ID : S_TEXT/UTF8 Codec ID/Info : UTF-8 Plain Text Duration : 1 h 42 min Bit rate : 29 b/s Count of elements : 908 Stream size : 22.4 KiB (0%) Title : Spanish Language : Spanish Default : No Forced : No Text #5 ID : 9 Format : UTF-8 Codec ID : S_TEXT/UTF8 Codec ID/Info : UTF-8 Plain Text Duration : 1 h 36 min Bit rate : 36 b/s Count of elements : 851 Stream size : 25.9 KiB (0%) Language : Vietnamese Default : Yes Forced : No Menu #1 00:00:00.000 : en: 00:00:12.179 : en: 00:04:34.983 : en: 00:06:53.330 : en: 00:09:58.306 : en: 00:16:14.098 : en: 00:21:02.094 : en: 00:27:07.584 : en: 00:29:33.021 : en: 00:35:21.369 : en: 00:41:21.771 : en: 00:48:34.203 : en: 00:55:21.652 : en: 01:02:00.675 : en: 01:08:53.171 : en: 01:12:58.833 : en: 01:19:22.925 : en: 01:24:30.857 : en: 01:29:08.885 : en: 01:34:54.772 : en: 01:39:09.902 : en: Menu #2 01:40:50.002 : en: 00:00:12.179 : en: 01:41:02.181 : en: 00:06:53.330 : en: 00:09:58.306 : en: 00:16:14.098 : en: 00:21:02.094 : en: 01:43:20.528 : en: 00:29:33.021 : en: 00:35:21.369 : en: 00:41:21.771 : en: 00:48:34.203 : en: 00:55:21.652 : en: 01:02:00.675 : en: 01:08:53.171 : en: 01:12:58.833 : en: 01:19:22.925 : en: 01:24:30.857 : en: 01:29:08.885 : en: 01:34:54.772 : en: 01:45:45.965 : en:
    [​IMG] [​IMG] [​IMG]



    Link tải


    Đã mux audio Lồng tiếng Việt + Phụ đề Việt từ Netflix


    Nhấn nút Cảm ơn (dưới chân bài) để thấy link!


     
  2. Lê Gia Huân

    Lê Gia Huân Member

    Tham gia ngày:
    27/5/18
    Bài viết:
    57
    Đã được cảm ơn:
    20
    Giới tính:
    Nam
    Nhờ bác up bản NF Web-DL để đồng bộ với những bản trước với ạ.
     
  3. adm820

    adm820 Moderator Thành viên BQT

    Tham gia ngày:
    1/12/10
    Bài viết:
    7,756
    Đã được cảm ơn:
    181,200
    Giới tính:
    Nam
    hienj tại đang trục trặc , nên ko lấy đc web dl. tuy vậy audio lồng tiếng +sub vẫn lấy đc
     
    Lê Gia Huân cảm ơn bài này.
  4. Lê Gia Huân

    Lê Gia Huân Member

    Tham gia ngày:
    27/5/18
    Bài viết:
    57
    Đã được cảm ơn:
    20
    Giới tính:
    Nam
    Hết trục trặc bác up giúp em với nhé, em cảm ơn. :)
     
  5. maithang

    maithang Active Member

    Tham gia ngày:
    3/6/10
    Bài viết:
    437
    Đã được cảm ơn:
    70
    Nghề nghiệp:
    Kiến Trúc Sư
    Nơi ở:
    Việt Nam
    Bluray đẹp hơn chứ. @@!
    Mà muốn giữ làm bộ sưu tập thì mình down bản x265 Bluray 10bit về rồi ghép lại hết audio lồng tiếng vs thuyết minh + sub rồi là ngon nhất. :D
     
    Lê Gia Huân cảm ơn bài này.
  6. Lê Gia Huân

    Lê Gia Huân Member

    Tham gia ngày:
    27/5/18
    Bài viết:
    57
    Đã được cảm ơn:
    20
    Giới tính:
    Nam
    Em muốn giữ bản nhẹ cân, chất lượng vừa đủ thôi bác ạ :)
     

Chia sẻ trang này