Superman Red Son 2020 1080p WEB-DL DD5.1 x264 - CMRG

Thảo luận trong 'WEB-DL, HDTV' bắt đầu bởi qazwsxrfvtgb, 26/2/20.

Tags
  1. qazwsxrfvtgb

    qazwsxrfvtgb Uploader

    Tham gia ngày:
    26/5/18
    Bài viết:
    899
    Đã được cảm ơn:
    17,771
    Superman Red Son 2020 1080p WEB-DL DD5.1 x264 - CMRG

    [​IMG]





    What if baby Kal-El's rocket landed, not in Kansas, but in the Soviet Union? That is the premise of this Elseworld's tale from DC Comics.










    Format : Matroska
    Format version : Version 4 / Version 2
    File size : 4.88 GiB
    Duration : 1 h 25 min
    Overall bit rate : 8 207 kb/s
    Encoded date : UTC 2020-02-25 00:01:02
    Writing application : mkvmerge v25.0.0 ('Prog Noir') 32-bit
    Writing library : libebml v1.3.6 + libmatroska v1.4.9

    Video
    ID : 1
    Format : AVC
    Format/Info : Advanced Video Codec
    Format profile : High@L4
    Format settings : CABAC / 2 Ref Frames
    Format settings, CABAC : Yes
    Format settings, ReFrames : 2 frames
    Codec ID : V_MPEG4/ISO/AVC
    Duration : 1 h 25 min
    Bit rate : 7 821 kb/s
    Width : 1 920 pixels
    Height : 1 080 pixels
    Display aspect ratio : 16:9
    Frame rate mode : Constant
    Frame rate : 23.976 (24000/1001) FPS
    Color space : YUV
    Chroma subsampling : 4:2:0
    Bit depth : 8 bits
    Scan type : Progressive
    Bits/(Pixel*Frame) : 0.157
    Stream size : 4.65 GiB (95%)
    Writing library : x264 core 155 r2901 7d0ff22
    Default : Yes
    Forced : No
    Color range : Limited
    Color primaries : BT.709
    Transfer characteristics : BT.709
    Matrix coefficients : BT.709

    Audio
    ID : 2
    Format : AC-3
    Format/Info : Audio Coding 3
    Codec ID : A_AC3
    Duration : 1 h 25 min
    Bit rate mode : Constant
    Bit rate : 384 kb/s
    Channel(s) : 6 channels
    Channel positions : Front: L C R, Side: L R, LFE
    Sampling rate : 48.0 kHz
    Frame rate : 31.250 FPS (1536 SPF)
    Bit depth : 16 bits
    Compression mode : Lossy
    Stream size : 234 MiB (5%)
    Title : English
    Language : English
    Service kind : Complete Main
    Default : No
    Forced : No

    Text
    ID : 3
    Format : UTF-8
    Codec ID : S_TEXT/UTF8
    Codec ID/Info : UTF-8 Plain Text
    Duration : 1 h 20 min
    Bit rate : 57 b/s
    Count of elements : 1070
    Stream size : 34.1 KiB (0%)
    Title : English
    Language : English
    Default : Yes
    Forced : No






    [​IMG]
    [​IMG]
    [​IMG]
    [​IMG]
    [​IMG]


    Link

    Nhấn nút Cảm ơn (dưới chân bài) để thấy link!




    Sub

    https://subscene.com/subtitles/superman-red-son/vietnamese

    đổi đuôi .3ct thành .mkv để coi
     
    Chỉnh sửa cuối: 26/2/20
  2. mabu9669

    mabu9669 Member

    Tham gia ngày:
    17/2/09
    Bài viết:
    33
    Đã được cảm ơn:
    17
    haha,
    búa liềm luôn à
     
    tmthan cảm ơn bài này.
  3. Lê Ngân Hà

    Lê Ngân Hà New Member

    Tham gia ngày:
    2/3/20
    Bài viết:
    17
    Đã được cảm ơn:
    6
    Phim cà khịa à :))
     
    hiepmu cảm ơn bài này.
  4. ronduong

    ronduong Well-Known Member

    Tham gia ngày:
    7/6/11
    Bài viết:
    1,783
    Đã được cảm ơn:
    6,401
    Giới tính:
    Nam
    Nơi ở:
    Việt Nam
    Superman version CS:eek::eek::eek:
     
  5. Sunofureku

    Sunofureku Member

    Tham gia ngày:
    8/1/12
    Bài viết:
    37
    Đã được cảm ơn:
    13
    Hàng DC đàng hoàng, không phải cà khịa đâu bác :v
     
  6. kietluan0889

    kietluan0889 New Member

    Tham gia ngày:
    31/8/11
    Bài viết:
    8
    Đã được cảm ơn:
    1
    thạnk
     

Chia sẻ trang này