[Fshare] [Tâm Lí | 1link ] Diaries of the Cheating Hearts 2012 HDTV 720p x264 AC3 &VAV | Nhật Ký Ngoại Tình

Thảo luận trong 'Phim có audio Việt' bắt đầu bởi xemaydinh, 23/10/13.

  1. xemaydinh

    xemaydinh Tem

    Tham gia ngày:
    3/7/10
    Bài viết:
    29,297
    Đã được cảm ơn:
    101,197
    Điểm thành tích:
    113
    Tiền:
    19,089 CR
    Diaries of the Cheating Hearts 2012 HDTV 720p x264 AC3 &VAV | Nhật Ký Ngoại Tình


    [​IMG]

    [​IMG]





    Mã:
    General
    Unique ID                                : 232892065088428567385908508629529743437 (0xAF3561548D19EF099C9AC942F843504D)
    Complete name                            : 擒爱记.Diaries.of.the.Cheating.Hearts.2012.HDTV.720p.x264.AC3\擒爱记.Diaries.of.the.Cheating.Hearts.2012.HDTV.720p.x264.AC3.mkv
    Format                                   : Matroska
    Format version                           : Version 2
    File size                                : 3.00 GiB
    Duration                                 : 1h 26mn
    Overall bit rate                         : 4 939 Kbps
    Encoded date                             : UTC 2012-08-05 08:09:10
    Writing application                      : mkvmerge v3.2.0 ('Beginnings') 编译于 Feb 12 2010 16:46:17
    Writing library                          : libebml v0.7.9 + libmatroska v0.8.1
    
    Video
    ID                                       : 1
    Format                                   : AVC
    Format/Info                              : Advanced Video Codec
    Format profile                           : High@L4.1
    Format settings, CABAC                   : Yes
    Format settings, ReFrames                : 9 frames
    Codec ID                                 : V_MPEG4/ISO/AVC
    Duration                                 : 1h 26mn
    Bit rate                                 : 4 746 Kbps
    Width                                    : 1 280 pixels
    Height                                   : 544 pixels
    Display aspect ratio                     : 2.35:1
    Frame rate                               : 23.976 fps
    Color space                              : YUV
    Chroma subsampling                       : 4:2:0
    Bit depth                                : 8 bits
    Scan type                                : Progressive
    Bits/(Pixel*Frame)                       : 0.284
    Stream size                              : 2.82 GiB (94%)
    Writing library                          : x264 core 120 r2146 bcd41db
    Encoding settings                        : cabac=1 / ref=9 / deblock=1:-2:-2 / analyse=0x3:0x113 / me=umh / subme=10 / psy=1 / psy_rd=1.00:0.05 / mixed_ref=1 / me_range=24 / chroma_me=1 / trellis=2 / 8x8dct=1 / cqm=0 / deadzone=21,11 / fast_pskip=0 / chroma_qp_offset=-2 / threads=8 / sliced_threads=0 / nr=0 / decimate=1 / interlaced=0 / bluray_compat=0 / constrained_intra=0 / bframes=5 / b_pyramid=2 / b_adapt=2 / b_bias=0 / direct=3 / weightb=1 / open_gop=0 / weightp=2 / keyint=250 / keyint_min=23 / scenecut=40 / intra_refresh=0 / rc=2pass / mbtree=0 / bitrate=4746 / ratetol=1.0 / qcomp=0.70 / qpmin=0 / qpmax=69 / qpstep=4 / cplxblur=20.0 / qblur=0.5 / ip_ratio=1.40 / pb_ratio=1.30 / aq=2:1.00
    Language                                 : English
    Default                                  : No
    Forced                                   : No
    
    Audio
    ID                                       : 2
    Format                                   : AC-3
    Format/Info                              : Audio Coding 3
    Mode extension                           : CM (complete main)
    Format settings, Endianness              : Big
    Codec ID                                 : A_AC3
    Duration                                 : 1h 26mn
    Bit rate mode                            : Constant
    Bit rate                                 : 192 Kbps
    Channel(s)                               : 2 channels
    Channel positions                        : Front: L R
    Sampling rate                            : 44.1 KHz
    Bit depth                                : 16 bits
    Compression mode                         : Lossy
    Stream size                              : 119 MiB (4%)
    Default                                  : Yes
    Forced                                   : No


    [​IMG]



    [​IMG] [​IMG] [​IMG] [​IMG] [​IMG] [​IMG] [​IMG] [​IMG] [​IMG]

    Link tải phim
    Diaries of the Cheating Hearts 2012 HDTV 720p x264 AC3 &VAV
    LINK FSHARE
    Nhấn nút Cảm ơn (dưới chân bài) để thấy link!

    OTHER LINK

    LINK TORRENTS

    Phim đã được Mux đầy đủ Audio Eng + Việt | Sub: Eng + Việt trong file MKV


    [ VAV STUDIO ] TỔNG HỢP PHIM HD THUYẾT MINH TIẾNG VIỆT



    [​IMG] [​IMG] [​IMG]



     
  2. windows112009

    windows112009 New Member

    Tham gia ngày:
    13/9/13
    Bài viết:
    16
    Đã được cảm ơn:
    1
    Điểm thành tích:
    0
    Tiền:
    26 CR
    Ðề: [Tâm Lí | 1link ] Diaries of the Cheating Hearts 2012 HDTV 720p x264 AC3 &VAV | Nhật Ký Ngoại Tình

    link torent die rùi thớt ơi
     
  3. dminh84

    dminh84 New Member

    Tham gia ngày:
    16/12/15
    Bài viết:
    5
    Đã được cảm ơn:
    2
    Điểm thành tích:
    1
    Tiền:
    20 CR
    Ðề: [Tâm Lí | 1link ] Diaries of the Cheating Hearts 2012 HDTV 720p x264 AC3 &VAV | Nhật Ký Ngoại Tình

    Link torrent die rùi thớt kìa. Hix!
     
  4. ghost0bk

    ghost0bk Well-Known Member

    Tham gia ngày:
    14/3/10
    Bài viết:
    2,794
    Đã được cảm ơn:
    3,753
    Điểm thành tích:
    113
    Nghề nghiệp:
    Bản quyền Visio,Project,SQL,Exchange....
    Nơi ở:
    Bán key bản quyền Win,Office,Server.....
    Web:
    Tiền:
    1,927 CR
    Ðề: [Tâm Lí | 1link ] Diaries of the Cheating Hearts 2012 HDTV 720p x264 AC3 &VAV | Nhật Ký Ngoại Tình

    Mình check tor bên 4r VT thì ko có ai seeds đâu các bạn! Nên tải FS thôi!


    Diaries of the Cheating Hearts 2012 HDTV 720p x264 AC3
    Nhật Ký Ngoại Tình...

    MoviesDramaHDTV720p

    16 2012-08-07
    08:01:41 3.00 GB 0 0 781 Anonymous
     
  5. vusonxe

    vusonxe Member

    Tham gia ngày:
    22/3/10
    Bài viết:
    67
    Đã được cảm ơn:
    55
    Điểm thành tích:
    18
    Giới tính:
    Nam
    Nghề nghiệp:
    về hưu trí
    Nơi ở:
    tỉnh an giang
    Tiền:
    737 CR
    cảm ơn
     
    #5 +1 CR

Chia sẻ trang này