[Tâm Lý - Hài - 1 Link] Finding Mr Right 2013 HDTV 720p x264 AAC-CHD | Truy tìm người hoàn hảo (Thăn

Thảo luận trong 'Link Phim - Nhạc chờ phục hồi' bắt đầu bởi tungdepzaikt, 11/5/13.

  1. tungdepzaikt

    tungdepzaikt Banned

    Tham gia ngày:
    15/5/11
    Bài viết:
    4,407
    Đã được thích:
    4
    Điểm thành tích:
    0
    Finding Mr Right 2013 HDTV 720p x264 AAC-CHD

    Truy tìm người hoàn hảo
    (Thăng Duy ,Ngô Tú Ba)


    [​IMG]

    [​IMG]
    [​IMG]
    Mã:
    [COLOR="#0000CD"]General
    Complete name                    : D:\Finding.Mr.Right.2013.720p.x264.AAC.mp4
    Format                           : MPEG-4
    Format profile                   : Base Media
    Codec ID                         : isom
    File size                        : 2.53 GiB
    Duration                         : 1h 57mn
    Overall bit rate                 : 3 070 Kbps
    Encoded date                     : UTC 2013-05-07 02:19:50
    Tagged date                      : UTC 2013-05-07 02:19:50
    
    Video
    ID                               : 1
    Format                           : AVC
    Format/Info                      : Advanced Video Codec
    Format profile                   : High@L3.1
    Format settings, CABAC           : Yes
    Format settings, ReFrames        : 5 frames
    Codec ID                         : avc1
    Codec ID/Info                    : Advanced Video Coding
    Duration                         : 1h 57mn
    Bit rate mode                    : Variable
    Bit rate                         : 3 000 Kbps
    Maximum bit rate                 : 7 995 Kbps
    Width                            : 1 280 pixels
    Height                           : 720 pixels
    Display aspect ratio             : 16:9
    Frame rate mode                  : Constant
    Frame rate                       : 25.000 fps
    Color space                      : YUV
    Chroma subsampling               : 4:2:0
    Bit depth                        : 8 bits
    Scan type                        : Progressive
    Bits/(Pixel*Frame)               : 0.130
    Stream size                      : 2.46 GiB (97%)
    Title                            : Imported with GPAC 0.4.6-DEV (build 1)
    Writing library                  : x264 core 80 r1376M 3feaec2
    Encoding settings                : cabac=1 / ref=5 / deblock=1:0:0 / analyse=0x3:0x113 / me=hex / subme=7 / psy=1 / psy_rd=1.0:0.0 / mixed_ref=1 / me_range=16 / chroma_me=1 / trellis=1 / 8x8dct=1 / cqm=0 / deadzone=21,11 / fast_pskip=1 / chroma_qp_offset=-2 / threads=6 / sliced_threads=0 / nr=0 / decimate=1 / mbaff=0 / constrained_intra=0 / bframes=3 / b_pyramid=0 / b_adapt=1 / b_bias=0 / direct=1 / wpredb=1 / wpredp=2 / keyint=250 / keyint_min=25 / scenecut=40 / rc_lookahead=40 / rc=2pass / mbtree=1 / bitrate=3000 / ratetol=1.0 / qcomp=0.60 / qpmin=10 / qpmax=51 / qpstep=4 / cplxblur=20.0 / qblur=0.5 / vbv_maxrate=3000 / vbv_bufsize=8000 / ip_ratio=1.40 / aq=1:1.00
    Encoded date                     : UTC 2013-05-07 02:19:50
    Tagged date                      : UTC 2013-05-07 02:24:28
    
    Audio
    ID                               : 2
    Format                           : AAC
    Format/Info                      : Advanced Audio Codec
    Format profile                   : LC
    Codec ID                         : 40
    Duration                         : 1h 57mn
    Bit rate mode                    : Variable
    Bit rate                         : 82.7 Kbps
    Maximum bit rate                 : 129 Kbps
    Channel(s)                       : 1 channel
    Channel positions                : Front: C
    Sampling rate                    : 48.0 KHz
    Compression mode                 : Lossy
    Stream size                      : 69.7 MiB (3%)
    Encoded date                     : UTC 2013-05-07 02:24:14
    Tagged date                      : UTC 2013-05-07 02:24:28[/COLOR]

    [​IMG]
    [​IMG]
    [​IMG]
    [​IMG]


    [​IMG]
    [video=youtube;roa8EfVA9Rk]http://www.youtube.com/watch?feature=player_embedded&v=roa8EfVA9Rk[/video]

    [​IMG]
    One link 2.5Gb

    [​IMG]
    [DOWNBOX][HIDE]Fshare - Dich vu chia se, luu tru du lieu mien phi tot nhat[/HIDE][/DOWNBOX]
    [​IMG]
    [DOWNBOX]http://www.hdvietnam.com/diendan/146-up-4share-vn/579833-tam-ly-hai-1-link-finding.html[/DOWNBOX]

    [​IMG]
    Mã:
    http://subscene.com/subtitles/title.aspx?q=Finding+Mr.+Right+&l=
     
    Chỉnh sửa cuối: 11/5/13
  2. shclavin

    shclavin Member

    Tham gia ngày:
    19/11/12
    Bài viết:
    925
    Đã được thích:
    0
    Điểm thành tích:
    16
    hóng bản đẹp và sớt
     
  3. hdiphone

    hdiphone New Member

    Tham gia ngày:
    19/9/11
    Bài viết:
    85
    Đã được thích:
    0
    Điểm thành tích:
    0
    Ðề: [Tâm Lý - Hài - 1 Link] Finding Mr Right 2013 HDTV 720p x264 AAC-CHD | Truy tìm người hoàn hảo (Thăng Duy ,Ngô Tú Ba)

    Hdtv là đẹp rồi mà, bluray chắc còn lâu!!
     
  4. tungdepzaikt

    tungdepzaikt Banned

    Tham gia ngày:
    15/5/11
    Bài viết:
    4,407
    Đã được thích:
    4
    Điểm thành tích:
    0
  5. SIR RYAN GIGGS

    SIR RYAN GIGGS New Member

    Tham gia ngày:
    29/11/09
    Bài viết:
    1,046
    Đã được thích:
    0
    Điểm thành tích:
    0
    Ðề: Re: [Tâm Lý - Hài - 1 Link] Finding Mr Right 2013 HDTV 720p x264 AAC-CHD | Truy tìm người hoàn hảo (Thăng Duy ,Ngô Tú Ba)

    Bản này là xem được rồi
     
  6. gsmorcdma

    gsmorcdma New Member

    Tham gia ngày:
    8/4/10
    Bài viết:
    1,727
    Đã được thích:
    1
    Điểm thành tích:
    0
    Ðề: [Tâm Lý - Hài - 1 Link] Finding Mr Right 2013 HDTV 720p x264 AAC-CHD | Truy tìm người hoàn hảo (Thăng Duy ,Ngô Tú Ba)

    Chờ subV là kéo thôi. Nghe noi Thang Duy đóng phim này hay lắm (ko giống như Sắc giới đâu các bạn nhé)
     
  7. nguyentung1412

    nguyentung1412 Member

    Tham gia ngày:
    4/9/11
    Bài viết:
    445
    Đã được thích:
    0
    Điểm thành tích:
    16
    Nghề nghiệp:
    Sinh viên
    Nơi ở:
    Hà Nội
    Ðề: [Tâm Lý - Hài - 1 Link] Finding Mr Right 2013 HDTV 720p x264 AAC-CHD | Truy tìm người hoàn hảo (Thăng Duy ,Ngô Tú Ba)

    Phim này chắc phải chờ sub Việt 1 thời gian dài đây !
     
  8. sammynhv

    sammynhv New Member

    Tham gia ngày:
    5/11/12
    Bài viết:
    27
    Đã được thích:
    0
    Điểm thành tích:
    0
    Có ai còn phim này ko ? cho mình xin link down với :(( die hết rồi
     

Chia sẻ trang này