[Tâm Lý | Kinh điển] The Shawshank Redemption 1994 1080p BluRay x264 DTS Bản 60FPS - Nhà tù Shawshan

Thảo luận trong 'Fshare.vn' bắt đầu bởi MaiNgocTam, 25/7/16.

  1. MaiNgocTam

    MaiNgocTam Well-Known Member

    Tham gia ngày:
    24/2/16
    Bài viết:
    153
    Đã được cảm ơn:
    290
    Nghề nghiệp:
    Student
    Nơi ở:
    Việt Nam
    The Shawshank Redemption 1994

    9.3 IMDB

    [​IMG]

    Andy Dufresne đang có tất cả tương lai, gia đình, cuộc sống tốt đẹp nhưng cái chết bất ngờ của cô vợ trẻ và gã tình nhân cùng bản án chung thân oan đã làm thay đổi hoàn toàn cuộc sống của Andy. Tưởng như mất tất cả nhưng Andy đã may mắn gặp Red người có thâm niên 20 năm bóc lịch vì buôn lậu. Chính Red đã mang cho Andy niềm tin vào cuộc sống. Andy có chứng minh được cho sự vô tội của mình ? Red liệu có được ân xá ? Được coi là "kẻ thua cuộc vĩ đại nhất trong lịch sử" do không nhận được bất cứ giải Oscar nào mặc dù nhận được tới 6 đề cử nhưng Shawshank Redemption lại được sự đón nhận nồng nhiệt từ người xem và giới phê bình. Xuyên suất phim là niềm hi vọng tự do tưởng như không bao giờ tắt của những người tù. Phim Nhà Tù Shawshank còn là bài ca của tình bạn vượt qua mọi ranh giới của tuổi tác, nghề nghiệp.

    Media Information

    The.Shawshank.Redemption.1994.1080p.BluRay.x264.DT S.60fps.mkv

    Mã:
    The.Shawshank.Redemption.1994.1080p.BluRay.x264.DT  S.60fps.mkv
    Format                                   : Matroska
    Format version                           : Version 4 / Version 2
    File size                                : 24.9 GiB
    Duration                                 : 2h 22mn
    Overall bit rate                         : 25.0 Mbps
    Encoded date                             : UTC 2016-07-22 10:25:48
    Writing application                      : mkvmerge v9.1.0 ('Little Earthquakes') 32bit
    Writing library                          : libebml v1.3.3 + libmatroska v1.4.4
    
    
    DURATION                                 : 02:15:39.922000000
    NUMBER_OF_FRAMES                         : 1685
    NUMBER_OF_BYTES                          : 78052
    _STATISTICS_WRITING_APP                  : mkvmerge v9.1.0 ('Little Earthquakes') 32bit
    _STATISTICS_WRITING_DATE_UTC             : 2016-07-22 10:25:48
    _STATISTICS_TAGS                         : BPS DURATION NUMBER_OF_FRAMES NUMBER_OF_BYTES
    Video
    ID                                       : 1
    Format                                   : AVC
    Format/Info                              : Advanced Video Codec
    Format profile                           : High@L4.1
    Format settings, CABAC                   : Yes
    Format settings, ReFrames                : 4 frames
    Codec ID                                 : V_MPEG4/ISO/AVC
    Duration                                 : 2h 22mn
    Bit rate                                 : 23.0 Mbps
    Width                                    : 1 920 pixels
    Height                                   : 1 080 pixels
    Display aspect ratio                     : 16:9
    Frame rate mode                          : Constant
    Frame rate                               : 59.880 fps
    Original frame rate                      : 59.940 fps
    Color space                              : YUV
    Chroma subsampling                       : 4:2:0
    Bit depth                                : 8 bits
    Scan type                                : Progressive
    Bits/(Pixel*Frame)                       : 0.186
    Stream size                              : 22.4 GiB (90%)
    Writing library                          : x264 core 129 r2230 1cffe9f
    Encoding settings                        : cabac=1 / ref=4 / deblock=1:-3:-3 / analyse=0x3:0x133 / me=esa / subme=10 / psy=1 / psy_rd=1.00:0.00 / mixed_ref=1 / me_range=32 / chroma_me=1 / trellis=2 / 8x8dct=1 / cqm=0 / deadzone=21,11 / fast_pskip=1 / chroma_qp_offset=-2 / threads=12 / lookahead_threads=2 / sliced_threads=0 / nr=0 / decimate=1 / interlaced=0 / bluray_compat=0 / constrained_intra=0 / bframes=8 / b_pyramid=2 / b_adapt=2 / b_bias=0 / direct=3 / weightb=1 / open_gop=0 / weightp=2 / keyint=599 / keyint_min=59 / scenecut=40 / intra_refresh=0 / rc_lookahead=60 / rc=2pass / mbtree=1 / bitrate=23040 / ratetol=1.0 / qcomp=0.60 / qpmin=0 / qpmax=69 / qpstep=4 / cplxblur=20.0 / qblur=0.5 / ip_ratio=1.40 / aq=1:1.00
    Language                                 : English
    Default                                  : No
    Forced                                   : No
    DURATION                                 : 02:22:33.395000000
    NUMBER_OF_FRAMES                         : 512691
    NUMBER_OF_BYTES                          : 24630590527
    _STATISTICS_WRITING_APP                  : mkvmerge v9.1.0 ('Little Earthquakes') 32bit
    _STATISTICS_WRITING_DATE_UTC             : 2016-07-22 10:25:48
    _STATISTICS_TAGS                         : BPS DURATION NUMBER_OF_FRAMES NUMBER_OF_BYTES
    Audio #1
    ID                                       : 2
    Format                                   : AC-3
    Format/Info                              : Audio Coding 3
    Mode extension                           : CM (complete main)
    Format settings, Endianness              : Big
    Codec ID                                 : A_AC3
    Duration                                 : 2h 22mn
    Bit rate mode                            : Constant
    Bit rate                                 : 448 Kbps
    Channel(s)                               : 6 channels
    Channel positions                        : Front: L C R, Side: L R, LFE
    Sampling rate                            : 48.0 KHz
    Bit depth                                : 16 bits
    Compression mode                         : Lossy
    Stream size                              : 457 MiB (2%)
    Language                                 : Vietnamese
    Default                                  : Yes
    Forced                                   : No
    Audio #2
    ID                                       : 3
    Format                                   : DTS
    Format/Info                              : Digital Theater Systems
    Mode                                     : 16
    Format settings, Endianness              : Big
    Codec ID                                 : A_DTS
    Duration                                 : 2h 22mn
    Bit rate mode                            : Constant
    Bit rate                                 : 1 509 Kbps
    Channel(s)                               : 6 channels
    Channel positions                        : Front: L C R, Side: L R, LFE
    Sampling rate                            : 48.0 KHz
    Bit depth                                : 24 bits
    Compression mode                         : Lossy
    Stream size                              : 1.50 GiB (6%)
    Language                                 : English
    Default                                  : No
    Forced                                   : No
    


    Screenshot


    (Click vào hình để xem kích thước và chất lượng)


    [​IMG]
    [​IMG]
    [​IMG]
    [​IMG]




    Trailer

    [video=youtube;6hB3S9bIaco]https://www.youtube.com/watch?v=6hB3S9bIaco[/video]

    Download


    Mã:
    [hide]https://www.fshare.vn/file/UYZTTE8MA8YV[/hide]
    Folder 60FPS

    Mã:
    [hide]https://www.fshare.vn/folder/7FATY6ONXG7C[/hide]
    Mã:
    [hide]https://www.fshare.vn/folder/Y1YICU3I4OV1[/hide]
    Subtitle

    Mã:
    [Hide]https://subscene.com/subtitles/the-shawshank-redemption/vietnamese/750753[/Hide]
     
  2. jpquangnguyen

    jpquangnguyen Member

    Tham gia ngày:
    14/9/13
    Bài viết:
    68
    Đã được cảm ơn:
    14
    Ðề: [Tâm Lý | Kinh điển] The Shawshank Redemption 1994 1080p BluRay x264 DTS Bản 60FPS - Nhà tù Shawshank ( Tim Robbins, Morgan Freeman)

    Kinh điển là 2 từ để nói về film này ^__^!
    " Ở đây không có ai có tội cả "
     
  3. sherlockholmes

    sherlockholmes Member

    Tham gia ngày:
    3/12/09
    Bài viết:
    342
    Đã được cảm ơn:
    11
    Ðề: [Tâm Lý | Kinh điển] The Shawshank Redemption 1994 1080p BluRay x264 DTS Bản 60FPS - Nhà tù Shawshank ( Tim Robbins, Morgan Freeman)

    chuẩn men. me like it
     

Chia sẻ trang này