[Tâm lý] Pelé: Birth of a Legend 2016 1080p WEB-DL DD5.1 H264-FGT ~ Huyền Thoại Bóng Đá Pelé | Vince

Thảo luận trong 'WEB-DL, HDTV' bắt đầu bởi v0minh, 26/5/16.

  1. v0minh

    v0minh Uploader

    Tham gia ngày:
    23/12/14
    Bài viết:
    19,546
    Đã được cảm ơn:
    142,102
    Điểm thành tích:
    113
    Giới tính:
    Nam
    Nghề nghiệp:
    Thợ Chém
    Nơi ở:
    Hải Phòng
    Web:
    Tiền:
    6,809 CR
    Pelé: Birth of a Legend 2016 1080p WEB-DL DD5.1 H264-FGT


    Huyền Thoại Bóng Đá Pelé

    {Phụ đề tiếng Việt}

    (Vincent D'Onofrio, Rodrigo Santoro, Diego Boneta)

    [​IMG] Ratings:7.4/10 from 847 users





    [​IMG]

    Thông tin phim. Click HERE:
    Pelé: Birth of a Legend 2016 - Bộ phim về cuộc sống của huyền thoại bóng đá Pele thuở thiếu thời ở khu Sao Paulo cho đến khi dẫn dắt đội tuyển Brazil đến chiến thắng World Cup đầu tiên năm 17 tuổi.

    English plot

    Pele's meteoric rise from the slums of Sao Paulo to leading Brazil to its first World Cup victory at the age of 17 is chronicled in this biographical drama


    Video
    ID : 1
    Format : AVC
    Format/Info : Advanced Video Codec
    Format profile : High@L4
    Format settings, CABAC : Yes
    Format settings, ReFrames : 5 frames
    Codec ID : V_MPEG4/ISO/AVC
    Duration : 1h 46mn
    Bit rate : 4 448 Kbps
    Width : 1 916 pixels
    Height : 794 pixels
    Display aspect ratio : 2.40:1
    Frame rate mode : Constant
    Frame rate : 23.976 fps
    Color space : YUV
    Chroma subsampling : 4:2:0
    Bit depth : 8 bits
    Scan type : Progressive
    Bits/(Pixel*Frame) : 0.122
    Stream size : 3.32 GiB (90%)
    Title : Pele.Birth.Of.A.Legend.2016.1080p.WEB-DL.DD5.1.H264-FGT
    Language : English
    Default : Yes
    Forced : No
    Color range : Limited
    Color primaries : BT.709
    Transfer characteristics : BT.709
    Matrix coefficients : BT.709

    Audio
    ID : 2
    Format : AC-3
    Format/Info : Audio Coding 3
    Mode extension : CM (complete main)
    Format settings, Endianness : Big
    Codec ID : A_AC3
    Duration : 1h 46mn
    Bit rate mode : Constant
    Bit rate : 384 Kbps
    Channel(s) : 6 channels
    Channel positions : Front: L C R, Side: L R, LFE
    Sampling rate : 48.0 KHz
    Frame rate : 31.250 fps (1536 spf)
    Compression mode : Lossy
    Stream size : 294 MiB (8%)
    Title : Pele.Birth.Of.A.Legend.2016.1080p.WEB-DL.DD5.1.H264-FGT
    Language : English
    Default : Yes
    Forced : No

    Text
    ID : 3
    Format : UTF-8
    Codec ID : S_TEXT/UTF8
    Codec ID/Info : UTF-8 Plain Text
    Language : English
    Default : Yes
    Forced : No

    Menu
    00:00:00.000 : en:Chapter 1
    00:08:32.554 : en:Chapter 2
    00:16:21.022 : en:Chapter 3
    00:25:50.508 : en:Chapter 4
    00:33:23.335 : en:Chapter 5
    00:43:28.314 : en:Chapter 6
    00:51:36.135 : en:Chapter 7
    01:01:11.543 : en:Chapter 8
    01:09:42.595 : en:Chapter 9
    01:17:53.294 : en:Chapter 10
    01:27:21.487 : en:Chapter 11
    01:41:54.818 : en:Chapter 12

    [​IMG][​IMG][​IMG][​IMG][​IMG][​IMG][​IMG][​IMG][​IMG]

    [video=youtube;XBrfxHOXsDE]https://www.youtube.com/watch?v=XBrfxHOXsDE[/video]
    FULL Trailer


    Download

    Dung lượng: 3.7 GiB
    Nhấn nút Cảm ơn (dưới chân bài) để thấy link!





    __________________________________________________ ________________________________
    [​IMG]
    KHO PHiM HD, BluRay - Update hàng ngày | Xuân Bính thân 2016
    Series/Collection | Phim Tài Liệu | HOT/Bom Tân | Blu-ray/Remux | Asia | US-EU | Cô Trang | Sniper | Lông tiêng | VietNam
    Incest | LGBT | ROCK/DemoWorld | Ghibli Studio | New year/Christmas | Van Damme | Bruce Lee | Diep Van | Hoang Phi Hong
    Star Wars | 007 | Mad Max | Fast and Furious | The Hunger Games
    __________________________________________________ ________________________________​
     
    huynhtiensinh, vusonxe and tieubao-64 like this.

Chia sẻ trang này