[Tâm Lý | Tình Cảm | 1 link ] Taipei Exchanges 2010 720p HDTV X264 AC3-JOMA

Thảo luận trong 'Fshare.vn' bắt đầu bởi dark_devil_90, 20/6/12.

  1. dark_devil_90

    dark_devil_90 Well-Known Member

    Tham gia ngày:
    9/12/09
    Bài viết:
    2,671
    Đã được cảm ơn:
    3,279
    Taipei Exchanges 2010 720p HDTV X264 AC3-JOMA

    [​IMG]


    [​IMG]

    Mã:

    
    	

    General Complete name : Taipei.Exchanges.2010.720p.HDTV.X264.AC3-JOMA.mkv Format : Matroska Format version : Version 2 File size : 4.38 GiB Duration : 1h 21mn Overall bit rate : 7 645 Kbps Encoded date : UTC 2010-10-17 00:45:20 Writing application : mkvmerge v2.9.9 ('Tutu') built on Nov 25 2009 21:13:32 Writing library : libebml v0.7.9 + libmatroska v0.8.1 Video ID : 1 Format : AVC Format/Info : Advanced Video Codec Format profile : High@L4.1 Format settings, CABAC : Yes Format settings, ReFrames : 7 frames Codec ID : V_MPEG4/ISO/AVC Duration : 1h 21mn Bit rate : 7 003 Kbps Width : 1 280 pixels Height : 720 pixels Display aspect ratio : 16:9 Frame rate : 29.970 fps Color space : YUV Chroma subsampling : 4:2:0 Bit depth : 8 bits Scan type : Progressive Bits/(Pixel*Frame) : 0.254 Stream size : 3.92 GiB (90%) Writing library : x264 core 68 r1183M f21daff Encoding settings : cabac=1 / ref=7 / deblock=1:-3:-3 / analyse=0x3:0x133 / me=umh / subme=8 / psy_rd=1.0:0.0 / mixed_ref=1 / me_range=24 / chroma_me=1 / trellis=2 / 8x8dct=1 / cqm=0 / deadzone=21,11 / chroma_qp_offset=-2 / threads=12 / nr=0 / decimate=1 / mbaff=0 / bframes=3 / b_pyramid=1 / b_adapt=2 / b_bias=0 / direct=3 / wpredb=1 / keyint=250 / keyint_min=25 / scenecut=40 / rc=2pass / bitrate=7003 / ratetol=1.0 / qcomp=0.60 / qpmin=10 / qpmax=51 / qpstep=4 / cplxblur=20.0 / qblur=0.5 / vbv_maxrate=50000 / vbv_bufsize=50000 / ip_ratio=1.40 / pb_ratio=1.30 / aq=1:1.00 Language : English Default : Yes Forced : No Audio ID : 2 Format : AC-3 Format/Info : Audio Coding 3 Mode extension : CM (complete main) Codec ID : A_AC3 Duration : 1h 21mn Bit rate mode : Constant Bit rate : 640 Kbps Channel(s) : 2 channels Channel positions : Front: L R Sampling rate : 48.0 KHz Bit depth : 16 bits Compression mode : Lossy Stream size : 375 MiB (8%) Default : Yes Forced : No

    [​IMG]


    [​IMG]

    [​IMG] [​IMG] [​IMG] [​IMG] [​IMG] [​IMG]

    Mã:
    http://www.imagebam.com/gallery/rgkvz1r6fgipcgjp6u2ghkdhtuxmg9od/
    [​IMG]

    1 link


    [​IMG]

    Nhấn nút Cảm ơn (dưới chân bài) để thấy link!




    [​IMG]

    Mã:
    http://subscene.com
    
    [​IMG]

    [video=youtube;HI3mnp2NTtE]http://www.youtube.com/watch?feature=player_embedded&v=HI3mnp2NTtE[/video]

    [​IMG]

    Mã:
    [B][SIZE="4"][COLOR="purple"]Havefun@HDM[/COLOR][/SIZE][/B]
    
     
    thanhtung90 and fsvnhd like this.
  2. vdung1972

    vdung1972 Well-Known Member

    Tham gia ngày:
    21/9/09
    Bài viết:
    4,151
    Đã được cảm ơn:
    498
    Giới tính:
    Nam
    Nghề nghiệp:
    Cạo giấy.
    Phim có vẻ hay mà không có sub Việt, đánh dấu đã. Thanks bác
     
  3. hoasimtim

    hoasimtim Well-Known Member

    Tham gia ngày:
    7/9/09
    Bài viết:
    23,571
    Đã được cảm ơn:
    2,672
    Giới tính:
    Nam
    Nghề nghiệp:
    KTV Phá Điện Thoại
    Nơi ở:
    Neo - Yên Dũng - Bắc Giang
    Đánh dấu chờ down :)
     
  4. vdung1972

    vdung1972 Well-Known Member

    Tham gia ngày:
    21/9/09
    Bài viết:
    4,151
    Đã được cảm ơn:
    498
    Giới tính:
    Nam
    Nghề nghiệp:
    Cạo giấy.
  5. lamhnz

    lamhnz Member

    Tham gia ngày:
    3/11/11
    Bài viết:
    207
    Đã được cảm ơn:
    3
    Ðề: [Tâm Lý | Tình Cảm | 1 link ] Taipei Exchanges 2010 720p HDTV X264 AC3-JOMA

    chờ các bro sub nấu sub sớm nhé - Cảm ơn :)
     

Chia sẻ trang này