[Tâm Lý ] Tsukushi's erotic story 2012 720p HDRipx264 AC3-WAF

Thảo luận trong 'mHD, SD' bắt đầu bởi truoduc, 27/12/13.

  1. truoduc

    truoduc Well-Known Member

    Tham gia ngày:
    4/10/09
    Bài viết:
    35,125
    Đã được thích:
    447
    Điểm thành tích:
    83
    Giới tính:
    Nam
    Tiền:
    2,924 CR
    [​IMG]


    [​IMG]

    Mã:
    Complete name                            : Tsukushi's erotic story.2012.720p.HDRipx264.AC3-WAF.avi
    Format                                   : AVI
    Format/Info                              : Audio Video Interleave
    Format profile                           : OpenDML
    File size                                : 2.20 GiB
    Duration                                 : 1h 15mn
    Overall bit rate                         : 4 176 Kbps
    Writing application                      : GOM ENCODER (GAviWriter 1.0)
    
    Video
    ID                                       : 0
    Format                                   : AVC
    Format/Info                              : Advanced Video Codec
    Format profile                           : Main@L4.1
    Format settings, CABAC                   : Yes
    Format settings, ReFrames                : 1 frame
    Codec ID                                 : H264
    Duration                                 : 1h 15mn
    Bit rate                                 : 4 000 Kbps
    Width                                    : 1 280 pixels
    Height                                   : 720 pixels
    Display aspect ratio                     : 16:9
    Frame rate                               : 29.970 fps
    Color space                              : YUV
    Chroma subsampling                       : 4:2:0
    Bit depth                                : 8 bits
    Scan type                                : Progressive
    Bits/(Pixel*Frame)                       : 0.145
    Stream size                              : 2.05 GiB (94%)
    Writing library                          : x264 core 1632855468Jun  7 2011
    Encoding settings                        : cabac=1 / ref=1 / deblock=1:0:0 / analyse=0x1:0x111 / me=hex / subme=5 / psy_rd=0.0:0.0 / mixed_ref=0 / me_range=16 / chroma_me=1 / trellis=0 / 8x8dct=0 / cqm=0 / deadzone=21,11 / chroma_qp_offset=0 / threads=12 / nr=0 / decimate=1 / mbaff=0 / bframes=0 / keyint=299 / keyint_min=1 / scenecut=40 / rc=abr / bitrate=4000 / ratetol=1.0 / qcomp=0.50 / qpmin=10 / qpmax=40 / qpstep=4 / ip_ratio=1.40 / aq=1:1.00
    
    Audio
    ID                                       : 1
    Format                                   : MPEG Audio
    Format version                           : Version 1
    Format profile                           : Layer 3
    Mode                                     : Joint stereo
    Mode extension                           : MS Stereo
    Codec ID                                 : 55
    Codec ID/Hint                            : MP3
    Duration                                 : 1h 15mn
    Bit rate mode                            : Constant
    Bit rate                                 : 256 Kbps
    Channel(s)                               : 2 channels
    Sampling rate                            : 48.0 KHz
    Compression mode                         : Lossy
    Stream size                              : 138 MiB (6%)
    Alignment                                : Aligned on interleaves
    Interleave, duration                     : 24 ms (0.72 video frame)
    Interleave, preload duration             : 432 ms
    Writing library                          : LAME3.98.4
    [​IMG]

    [​IMG]

    [​IMG]

    [​IMG]

    [​IMG]

    [hide]
    Mã:
    http://www.fshare.vn/file/TP4VJWZ65T/
    [/hide]

    [​IMG]

    Mã:
    http://subscene.com/
     
  2. minhdangkt

    minhdangkt Active Member

    Tham gia ngày:
    28/4/10
    Bài viết:
    1,588
    Đã được thích:
    8
    Điểm thành tích:
    38
    Tiền:
    1,570 CR
    Ðề: [Tâm Lý ] Tsukushi's erotic story 2012 720p HDRipx264 AC3-WAF

    Chắc còn lâu mới có sub nhỉ
     
  3. truoduc

    truoduc Well-Known Member

    Tham gia ngày:
    4/10/09
    Bài viết:
    35,125
    Đã được thích:
    447
    Điểm thành tích:
    83
    Giới tính:
    Nam
    Tiền:
    2,924 CR
    Ðề: [Tâm Lý ] Tsukushi's erotic story 2012 720p HDRipx264 AC3-WAF

    Phim nóng chơi luôn khỏi cần sub bạn à
     
  4. nhoc_romeo

    nhoc_romeo Active Member

    Tham gia ngày:
    22/8/09
    Bài viết:
    1,287
    Đã được thích:
    1
    Điểm thành tích:
    38
    Tiền:
    2,348 CR
    Ðề: [Tâm Lý ] Tsukushi's erotic story 2012 720p HDRipx264 AC3-WAF

    Phim này khỏi cần sub,chỉ cần khăn giấy thôi là đủ bác ah!=))
     
  5. hunterval

    hunterval Member

    Tham gia ngày:
    21/6/09
    Bài viết:
    793
    Đã được thích:
    2
    Điểm thành tích:
    18
    Tiền:
    677 CR
    Ðề: [Tâm Lý ] Tsukushi's erotic story 2012 720p HDRipx264 AC3-WAF

    chắc phim thấm đẫm nước mắt nhỉ
     
  6. dangkhoi81

    dangkhoi81 New Member

    Tham gia ngày:
    2/12/11
    Bài viết:
    174
    Đã được thích:
    0
    Điểm thành tích:
    0
    Tiền:
    5,864 CR
    Ðề: [Tâm Lý ] Tsukushi's erotic story 2012 720p HDRipx264 AC3-WAF

    kéo về xem thôi, thanks bạn
     
  7. truoduc

    truoduc Well-Known Member

    Tham gia ngày:
    4/10/09
    Bài viết:
    35,125
    Đã được thích:
    447
    Điểm thành tích:
    83
    Giới tính:
    Nam
    Tiền:
    2,924 CR
    Ðề: [Tâm Lý ] Tsukushi's erotic story 2012 720p HDRipx264 AC3-WAF

    Xem đi rồi sẽ biết bạn nhé =))
     
  8. alo0909097609

    alo0909097609 Member

    Tham gia ngày:
    30/12/08
    Bài viết:
    280
    Đã được thích:
    1
    Điểm thành tích:
    18
    Nơi ở:
    Ho Chi Minh City, Vietnam, Vietnam
    Tiền:
    1,204 CR
    Ðề: [Tâm Lý ] Tsukushi's erotic story 2012 720p HDRipx264 AC3-WAF

    đúng là phim xem xong thấy ướt át quá !!
     

Chia sẻ trang này