[Fshare] Tân Thủy Hử 2011 - All Men Are Brothers 2011 Complete WEB-DL 2160p H265 AAC 2Audio-HDHWEB

Thảo luận trong 'Phim bộ - Series' bắt đầu bởi giomua, 27/3/20 lúc 15:33.

  1. giomua

    giomua Well-Known Member

    Tham gia ngày:
    6/3/10
    Bài viết:
    6,582
    Đã được cảm ơn:
    4,530
    Giới tính:
    Nam
    Tân Thủy Hử 2011
    All Men Are Brothers 2011 Complete WEB-DL 2160p H265 AAC 2Audio-HDHWEB

    (Bản 4K 2160p cho các bác thích khám phá)
    [​IMG]

    Mã:
    General
    Unique ID                      : 123145291279719449469733955669880652297 (0x5CA4EB9F3DF359FC7569C860EFF2C209)
    Complete name                  : 水浒传.All.Men.Are.Brothers.2011.EP11.WEB-DL.2160p.H265.AAC.2Audio-HDHWEB.mkv
    Format                         : Matroska
    Format version                 : Version 4
    File size                      : 2.78 GiB
    Duration                       : 44 min 21 s
    Overall bit rate               : 8 956 kb/s
    Encoded date                   : UTC 2020-03-05 02:36:44
    Writing application            : mkvmerge v43.0.0 ('The Quartermaster') 64-bit
    Writing library                : libebml v1.3.10 + libmatroska v1.5.2
    
    
    Video
    ID                             : 1
    Format                         : HEVC
    Format/Info                    : High Efficiency Video Coding
    Format profile                 : Main@L5@Main
    Codec ID                       : V_MPEGH/ISO/HEVC
    Duration                       : 44 min 21 s
    Bit rate                       : 8 606 kb/s
    Width                          : 3 840 pixels
    Height                         : 2 160 pixels
    Display aspect ratio           : 16:9
    Frame rate mode                : Constant
    Frame rate                     : 25.000 FPS
    Color space                    : YUV
    Chroma subsampling             : 4:2:0
    Bit depth                      : 8 bits
    Bits/(Pixel*Frame)             : 0.042
    Stream size                    : 2.67 GiB (96%)
    Default                        : Yes
    Forced                         : No
    Color range                    : Limited
    Color primaries                : BT.709
    Transfer characteristics       : BT.709
    Matrix coefficients            : BT.709
    Audio #1
    ID                             : 2
    Format                         : AAC LC
    Format/Info                    : Advanced Audio Codec Low Complexity
    Codec ID                       : A_AAC-2
    Duration                       : 44 min 21 s
    Bit rate                       : 192 kb/s
    Channel(s)                     : 2 channels
    Channel layout                 : L R
    Sampling rate                  : 44.1 kHz
    Frame rate                     : 43.066 FPS (1024 SPF)
    Compression mode               : Lossy
    Stream size                    : 60.2 MiB (2%)
    Title                          : 国语
    Language                       : Chinese
    Default                        : Yes
    Forced                         : No
    Audio #2
    ID                             : 3
    Format                         : AAC LC
    Format/Info                    : Advanced Audio Codec Low Complexity
    Codec ID                       : A_AAC-2
    Duration                       : 44 min 21 s
    Bit rate                       : 158 kb/s
    Channel(s)                     : 2 channels
    Channel layout                 : L R
    Sampling rate                  : 44.1 kHz
    Frame rate                     : 43.066 FPS (1024 SPF)
    Compression mode               : Lossy
    Stream size                    : 50.0 MiB (2%)
    Title                          : 粤语
    Language                       : Chinese
    Default                        : No
    Forced                         : No
    

    [​IMG] [/B]
    LINK DOWNLOAD
    Nhấn nút Cảm ơn (dưới chân bài) để thấy link!


     
    gacon_svn, HAANHVU, davidinh and 56 others like this.
  2. giomua

    giomua Well-Known Member

    Tham gia ngày:
    6/3/10
    Bài viết:
    6,582
    Đã được cảm ơn:
    4,530
    Giới tính:
    Nam
    @duongminhngau mời bác tải về và thêm gia vị cho anh em chén
     
    minhbinh, duongminhngau and hoaitrung like this.
  3. duongminhngau

    duongminhngau Well-Known Member

    Tham gia ngày:
    7/12/11
    Bài viết:
    603
    Đã được cảm ơn:
    4,995
    Giới tính:
    Nam
    Ok Ông Giáo! Chờ mãi 4K! Huuuuuu! Giờ down cái đã, cái này thì nhanh rồi, Tôi sẽ up lại cho Bác audio TM VTV sau khi chỉnh chuẩn với 4K này! ^^
     
    tatam, minhbinh and hoaitrung like this.
  4. giomua

    giomua Well-Known Member

    Tham gia ngày:
    6/3/10
    Bài viết:
    6,582
    Đã được cảm ơn:
    4,530
    Giới tính:
    Nam
    Bác mux cả TM và sub luôn vào file và up cho anh em nhé
     
    minhbinh and duongminhngau like this.
  5. tuongtuong_1994

    tuongtuong_1994 Member

    Tham gia ngày:
    28/11/15
    Bài viết:
    33
    Đã được cảm ơn:
    10
    Giới tính:
    Nam
    bản này có bị hardsub tàu ko bác
     
    minhbinh cảm ơn bài này.
  6. duongminhngau

    duongminhngau Well-Known Member

    Tham gia ngày:
    7/12/11
    Bài viết:
    603
    Đã được cảm ơn:
    4,995
    Giới tính:
    Nam
    Tất nhiên có rồi, nhưng mà chữ Tàu rất nhỏ, không vấn đề! ^^
     
    tuongtuong_1994 and minhbinh like this.
  7. okai2

    okai2 Active Member

    Tham gia ngày:
    21/6/10
    Bài viết:
    428
    Đã được cảm ơn:
    213
    Neu duoc, Ban mux luon Long tieng vao. Ko co cung ko sao. Cam on Ban nhieu.
     
    duongminhngau and minhbinh like this.
  8. tiensh98

    tiensh98 Active Member

    Tham gia ngày:
    22/10/17
    Bài viết:
    494
    Đã được cảm ơn:
    202
    Giới tính:
    Nam
    mong bác làm sub cho bản ngon này ạ :)
     
    duongminhngau cảm ơn bài này.
  9. adm820

    adm820 Moderator Thành viên BQT

    Tham gia ngày:
    1/12/10
    Bài viết:
    7,164
    Đã được cảm ơn:
    164,483
    Giới tính:
    Nam
    bộ Lộc đỉnh kí mới có raw từ amz

    Mã:
    Format                         : Matroska
    Format version                 : Version 4
    File size                      : 3.08 GiB
    Duration                       : 47 min 20 s
    Overall bit rate               : 9 314 kb/s
    Writing application            : Lavf58.29.100
    Writing library                : Lavf58.29.100
    ErrorDetectionType             : Per level 1
    
    Video
    ID                             : 1
    Format                         : AVC
    Format/Info                    : Advanced Video Codec
    Format profile                 : High@L4
    Format settings                : CABAC / 4 Ref Frames
    Format settings, CABAC         : Yes
    Format settings, Reference fra : 4 frames
    Codec ID                       : V_MPEG4/ISO/AVC
    Duration                       : 47 min 16 s
    Bit rate mode                  : Constant
    Bit rate                       : 9 099 kb/s
    Nominal bit rate               : 10 000 kb/s
    Width                          : 1 920 pixels
    Height                         : 1 080 pixels
    Display aspect ratio           : 16:9
    Frame rate mode                : Constant
    Frame rate                     : 25.000 FPS
    Color space                    : YUV
    Chroma subsampling             : 4:2:0
    Bit depth                      : 8 bits
    Scan type                      : Progressive
    Bits/(Pixel*Frame)             : 0.176
    Stream size                    : 3.00 GiB (98%)
    Default                        : Yes
    Forced                         : No
    Color range                    : Limited
    Color primaries                : BT.709
    Transfer characteristics       : BT.709
    Matrix coefficients            : BT.709
    
    Audio
    ID                             : 2
    Format                         : E-AC-3
    Format/Info                    : Enhanced AC-3
    Commercial name                : Dolby Digital Plus
    Codec ID                       : A_EAC3
    Duration                       : 47 min 16 s
    Bit rate mode                  : Constant
    Bit rate                       : 224 kb/s
    Channel(s)                     : 2 channels
    Channel layout                 : L R
    Sampling rate                  : 48.0 kHz
    Frame rate                     : 31.250 FPS (1536 SPF)
    Bit depth                      : 32 bits
    Compression mode               : Lossy
    Stream size                    : 75.7 MiB (2%)
    Title                          : 中文
    Language                       : Chinese
    Service kind                   : Complete Main
    Default                        : Yes
    Forced                         : No
    
    Text #1
    ID                             : 3
    Format                         : UTF-8
    Codec ID                       : S_TEXT/UTF8
    Codec ID/Info                  : UTF-8 Plain Text
    Duration                       : 47 min 20 s
    Title                          : 简体中文
    Language                       : Chinese
    Default                        : No
    Forced                         : No
    
    Text #2
    ID                             : 4
    Format                         : UTF-8
    Codec ID                       : S_TEXT/UTF8
    Codec ID/Info                  : UTF-8 Plain Text
    Duration                       : 47 min 20 s
    Title                          : 繁体中文
    Language                       : Chinese
    Default                        : No
    Forced                         : No
    
    Text #3
    ID                             : 5
    Format                         : UTF-8
    Codec ID                       : S_TEXT/UTF8
    Codec ID/Info                  : UTF-8 Plain Text
    Duration                       : 44 min 10 s
    Title                          : 英文
    Language                       : English
    Default                        : No
    Forced                         : No
    
    
    Chưa có tên.jpg
     
    hoaitrung and duongminhngau like this.
  10. tiensh98

    tiensh98 Active Member

    Tham gia ngày:
    22/10/17
    Bài viết:
    494
    Đã được cảm ơn:
    202
    Giới tính:
    Nam
    quả ảnh chất quá bác :v
     
  11. duongminhngau

    duongminhngau Well-Known Member

    Tham gia ngày:
    7/12/11
    Bài viết:
    603
    Đã được cảm ơn:
    4,995
    Giới tính:
    Nam
    Quá tuyệt đó Bác adm820!!! Bác cứ để vài ngày, tôi xong bộ TTH 4K này rồi pm Bác lấy raw làm nhé ^^ Have fun
     
    tatam and hoaitrung like this.
  12. minhbinh

    minhbinh Active Member

    Tham gia ngày:
    21/4/12
    Bài viết:
    503
    Đã được cảm ơn:
    170
    Chờ bản mux thuyết minh ạ
     

Chia sẻ trang này