[Fshare] Tây Du Ký - Phim Truyền Hình 1986-2000

Thảo luận trong 'Phim bộ - Series' bắt đầu bởi Haxen, 26/10/16.

  1. Haxen

    Haxen Well-Known Member

    Tham gia ngày:
    6/8/11
    Bài viết:
    3,160
    Đã được cảm ơn:
    334
    Điểm thành tích:
    83
    Giới tính:
    Nam
    Nghề nghiệp:
    NA
    Nơi ở:
    Việt Nam
    Tiền:
    6,916 CR
    Tây Du Ký là một bộ phim truyền hình được chuyển thể từ tiểu thuyết cùng tên của nhà văn Trung Quốc Ngô Thừa Ân, do Đài truyền hình Trung ương Trung Quốc (CCTV) và Cục Đường sắt Trung Quốc phối hợp sản xuất, phim khởi quay từ năm 1982 và đến năm 1988 thì hoàn thành. Năm 1986 CCTV chính thức công chiếu 11 tập đã quay và lấy năm này là năm sản xuất vì thế phiên bản này thường lấy tên là Tây Du Ký 1986. Khảo sát của CCTV năm 1987, đạt tỷ suất khán giả 89,4%, trong đó đối tượng có trình độ đại học tỷ lệ xem là 85,2%, đối tượng mù chữ hay chưa biết chữ (không tính trẻ em) tỷ lệ xem là 100%.
    Tây Du Ký kể về chuyện Tôn Ngộ Không, Trư Bát Giới và Sa Ngộ Tịnh phò Đường Tăng sang phương Tây (Ấn Độ ở về phía Trung Quốc). Đường đi gặp bao trắc trở, gian nan trắc trở, tổng cộng gặp đến 81 nạn, cuối cùng cũng đều vượt qua đến được xứ sở Phật tổ, mang kinh Phật về truyền bá ở phương Đông.

    Mã:
    Format                                   : Matroska
    Format version                           : Version 4 / Version 2
    
    
    	

    File size : 3.08 GiB

    Duration : 1h 1mn Overall bit rate mode : Variable Overall bit rate : 7 171 Kbps Encoded date : UTC 2016-09-24 14:23:53 Writing application : mkvmerge v9.4.0 ('Knurl') 32bit Writing library : libebml v1.3.4 + libmatroska v1.4.5 DURATION : 01:01:32.128000000 NUMBER_OF_FRAMES : 86535 NUMBER_OF_BYTES : 88611072 _STATISTICS_WRITING_APP : mkvmerge v9.4.0 ('Knurl') 32bit _STATISTICS_WRITING_DATE_UTC : 2016-09-24 14:23:53 _STATISTICS_TAGS : BPS DURATION NUMBER_OF_FRAMES NUMBER_OF_BYTES Video ID : 1 Format : AVC Format/Info : Advanced Video Codec Format profile : Main@L4.1 Format settings, CABAC : Yes Format settings, ReFrames : 2 frames Format settings, GOP : M=3, N=25 Codec ID : V_MPEG4/ISO/AVC Duration : 1h 1mn Bit rate mode : Variable Bit rate : 6 837 Kbps Maximum bit rate : 10.5 Mbps Width : 1 280 pixels Height : 720 pixels Display aspect ratio : 16:9 Frame rate mode : Constant Frame rate : 24.000 fps Color space : YUV Chroma subsampling : 4:2:0 Bit depth : 8 bits Scan type : Progressive Bits/(Pixel*Frame) : 0.309 Stream size : 2.94 GiB (95%) Default : Yes Forced : No Audio ID : 2 Format : AC-3 Format/Info : Audio Coding 3 Mode extension : CM (complete main) Format settings, Endianness : Big Codec ID : A_AC3 Duration : 1h 1mn Bit rate mode : Constant Bit rate : 192 Kbps Channel(s) : 2 channels Channel positions : Front: L R Sampling rate : 48.0 KHz Bit depth : 16 bits Compression mode : Lossy Stream size : 84.5 MiB (3%) Default : Yes Forced : No
    Phim gồm 2 phần phần 1 gồm 25 tập và phần 2 gồm 16 tập.
    Tất cả các tập đều là định dạng .MKV với tỷ lệ khung ảnh 16:9, chất lượng phim tương đối tốt.

    [​IMG]
    Phim mới up được 22 tập phần 1, còn 3 tập phần 1 và 16 tập phần 2 sẽ up sớm nhất có thể

    Link Download: https://www.fshare.vn/folder/JR1JDXCKL25A (Phần 1, 25 tập)
    https://www.fshare.vn/folder/WLXPI2I2KBNZ (Phần 2, 16 Tập)

    Chúc cả nhà xem phim vui vẻ.
     
    Chỉnh sửa cuối: 31/10/16
    #1 +2 CR
  2. nh_ha

    nh_ha Member

    Tham gia ngày:
    8/1/10
    Bài viết:
    172
    Đã được cảm ơn:
    17
    Điểm thành tích:
    18
    Tiền:
    1,259 CR
    Cái này bản thuyết minh của đài nào vậy? HTV thì tuyệt vời
     
    #2 +1 CR
  3. DuySPKT

    DuySPKT Member

    Tham gia ngày:
    30/10/12
    Bài viết:
    37
    Đã được cảm ơn:
    2
    Điểm thành tích:
    8
    Tiền:
    1,901 CR
    khung ảnh 4:3 mới đúng, đằng này kéo dãn thành 16:9 xem người cứ lùn lùn hơi kì, mình toàn dùng vlc xem ở 4:3, dù sao thì cũng cảm ơn bác chủ đã up bộ này, ráng up đủ trọn bộ nhé bác. tks.
     
  4. Haxen

    Haxen Well-Known Member

    Tham gia ngày:
    6/8/11
    Bài viết:
    3,160
    Đã được cảm ơn:
    334
    Điểm thành tích:
    83
    Giới tính:
    Nam
    Nghề nghiệp:
    NA
    Nơi ở:
    Việt Nam
    Tiền:
    6,916 CR
    #4 +1 CR
  5. tieulong_001

    tieulong_001 Active Member

    Tham gia ngày:
    29/11/09
    Bài viết:
    566
    Đã được cảm ơn:
    33
    Điểm thành tích:
    28
    Tiền:
    929 CR
    Nặng dữ ta, thấy mấy bản khác tầm trên dưới 1GB thôi mà, ai review chất lượng với.
     
  6. bobumbibo

    bobumbibo New Member

    Tham gia ngày:
    28/11/13
    Bài viết:
    1
    Đã được cảm ơn:
    0
    Điểm thành tích:
    1
    Tiền:
    51 CR
    thanks! sao ko có tập 15 nhỉ?
     
  7. BanhMyHD

    BanhMyHD New Member

    Tham gia ngày:
    27/2/14
    Bài viết:
    10
    Đã được cảm ơn:
    6
    Điểm thành tích:
    3
    Tiền:
    11 CR
    Thuyết minh là của bên nào vậy ae, HTV, VTV...?
    Chủ thớt cho hỏi nguồn video thì từ đâu ạ, bác có encode lại ko?
     
    Chỉnh sửa cuối: 14/9/19

Chia sẻ trang này