[Mega] Taylor Swift - You Belong With Me [1080p-JoseK] (Upscale)

Thảo luận trong 'US-EU' bắt đầu bởi johnkenerdi, 26/10/18.

  1. johnkenerdi

    johnkenerdi Active Member

    Tham gia ngày:
    6/11/09
    Bài viết:
    262
    Đã được cảm ơn:
    216
    Giới tính:
    Nam
    Đây là bản Upcale đẹp nhất mà mình sưu tầm được, chia sẽ cùng mọi người.

    [​IMG]
    [​IMG]
    [​IMG]
    [​IMG]
    General:

    Format: Matroska

    Format version: Version 4 / Version 2
    File size: 701 MiB
    Duration: 3 min 52 s
    Overall bit rate mode: Variable
    Overall bit rate : 25.3 Mb/s

    Video
    ID : 1
    Format: AVC
    Format/Info: Advanced Video Codec
    Format profile: High@L4.1
    Format settings, CABAC : Yes
    Format settings, ReFrames: 4 frames
    Codec ID: V_MPEG4/ISO/AVC
    Duration : 3 min 52 s
    Bit rate mode : Variable
    Bit rate: 25.3 Mb/s
    Maximum bit rate : 30.0 Mb/s
    Width: 1 920 pixels
    Height: 1 080 pixels
    Display aspect ratio: 16:9
    Frame rate mode : Constant
    Frame rate: 25 (24000/1001) FPS
    Color space: YUV
    Chroma subsampling: 4:2:0
    Bit depth: 8 bits
    Scan type: Progressive
    Bits/(Pixel*Frame): 0.466
    Stream size: 675 MiB (94%)
    Default : Yes
    Forced : Yes
    Color range : Limited
    Color primaries: BT.709
    Transfer characteristics : BT.709
    Matrix coefficients: BT.709

    Audio
    ID : 2
    Format : FLAC
    Format/Info : Free Lossless Audio Codec
    Codec ID: A_FLAC
    Duration : 3 min 52 s
    Bit rate mode : Variable
    Bit rate : 976 kb/s
    Channel(s) : 2 channels
    Channel positions: Front: L R
    Sampling rate : 44.1 kHz
    Frame rate: 10.767 FPS (4096 spf)
    Bit depth: 16 bits
    Stream size : 27.1 MiB (4%)
    Default : Yes
    Forced : Yes
    Nhấn nút Cảm ơn (dưới chân bài) để thấy link!
     
    Chỉnh sửa cuối: 4/12/19
  2. tienkeny1881

    tienkeny1881 New Member

    Tham gia ngày:
    22/5/19
    Bài viết:
    6
    Đã được cảm ơn:
    2
    thank you very mush
     
    johnkenerdi cảm ơn bài này.
  3. nhkdmx

    nhkdmx New Member

    Tham gia ngày:
    25/10/19
    Bài viết:
    2
    Đã được cảm ơn:
    0
    Giới tính:
    Nam
    Tanks
     

Chia sẻ trang này