The Demi-Gods and Semi-Devils 2003 1080p AMZN WEB-DL DD5.1 x264 ~ Thiên Long Bát Bộ (Vietsub + TM)

Thảo luận trong 'Phim bộ - Series' bắt đầu bởi caothudeche, 10/5/20.

  1. caothudeche

    caothudeche Moderator

    Tham gia ngày:
    24/1/10
    Bài viết:
    3,033
    Đã được cảm ơn:
    1,516
    THIÊN LONG BÁT BỘ (2003)
    Thuyết minh HTV + Phụ đề Tiếng Việt

    [​IMG]

    Chắc không cần phải giới thiệu với mọi người về bộ phim này nữa, từ lâu cũng như gần đây cũng có quá nhiều người encode, upload rồi. Mình cũng từng hoàn thành bản nguồn DVD9, nhưng gần đây cũng nhờ Amazon mua lại bản quyền và nhờ bác @hoaitrung chia sẻ mà mọi người có một bản sưu tầm chất lượng nhất cho đến hiện tại.
    Mình chỉ encode lại, cắt bỏ viền đen, cắt rời Opening và Ending, cố gắng giữ chất lượng cao nhất có thể. Đồng thời là cố gắng chau chuốt bản phụ đề cho khớp và để mọi người dễ đọc nhất

    Đối với Audio Thuyết minh của HTV, mình chỉ đưa thêm vào để phục vụ những ai lười đọc phụ đề nên chất lượng cũng chỉ dừng lại ở mức tạm chấp nhận. Mặc dù cũng đã thử tách kênh để ghép lại với audio gốc nhưng quả thực âm thanh đã bị đan xen quá phức tạp.

    Mã:
    General
    Unique ID                   : 327165059193200917853355242171695914901 (0xF621B2CC07837E52FB05C4B220805F95)
    Complete name               : I:\Films\Thien Long Bat Bo (2003)\Finished\Thien Long Bat Bo (2003).E01.1080p.AMZN.WEB-DL.DD5.1.x264.mkv
    Format                      : Matroska
    Format version              : Version 4
    File size                   : 3.14 GiB
    Duration                    : 41 min 28 s
    Overall bit rate            : 10.8 Mb/s
    Encoded date                : UTC 2020-04-25 05:47:39
    
    
    Writing application         : mkvmerge v45.0.0 ('Heaven in Pennies') 64-bit
    Writing library             : libebml v1.3.10 + libmatroska v1.5.2
    Video
    ID                          : 1
    Format                      : AVC
    Format/Info                 : Advanced Video Codec
    Format profile              : Main@L4
    Format settings             : CABAC / 4 Ref Frames
    Format settings, CABAC      : Yes
    Format settings, Reference  : 4 frames
    Codec ID                    : V_MPEG4/ISO/AVC
    Duration                    : 41 min 28 s
    Bit rate                    : 10 000 kb/s
    Width                       : 1 920 pixels
    Height                      : 1 080 pixels
    Display aspect ratio        : 16:9
    Frame rate mode             : Constant
    Frame rate                  : 25.000 FPS
    Color space                 : YUV
    Chroma subsampling          : 4:2:0
    Bit depth                   : 8 bits
    Scan type                   : Progressive
    Bits/(Pixel*Frame)          : 0.193
    Stream size                 : 2.90 GiB (92%)
    Writing library             : x264 core 157 r2969 d4099dd
    Encoding settings           : cabac=1 / ref=3 / deblock=1:0:0 / analyse=0x1:0x111 / me=hex / subme=7 / psy=1 / psy_rd=1.00:0.00 / mixed_ref=1 / me_range=16 / chroma_me=1 / trellis=1 / 8x8dct=0 / cqm=0 / deadzone=21,11 / fast_pskip=1 / chroma_qp_offset=-2 / threads=6 / lookahead_threads=1 / sliced_threads=0 / nr=0 / decimate=1 / interlaced=0 / bluray_compat=0 / constrained_intra=0 / bframes=4 / b_pyramid=2 / b_adapt=2 / b_bias=0 / direct=1 / weightb=1 / open_gop=0 / weightp=2 / keyint=250 / keyint_min=25 / scenecut=40 / intra_refresh=0 / rc_lookahead=40 / rc=2pass / mbtree=1 / bitrate=10000 / ratetol=1.0 / qcomp=0.60 / qpmin=0 / qpmax=69 / qpstep=4 / cplxblur=20.0 / qblur=0.5 / vbv_maxrate=20000 / vbv_bufsize=25000 / nal_hrd=none / filler=0 / ip_ratio=1.40 / aq=2:1.00
    Default                     : Yes
    Forced                      : No
    Audio #1
    ID                          : 2
    Format                      : AC-3
    Format/Info                 : Audio Coding 3
    Commercial name             : Dolby Digital
    Codec ID                    : A_AC3
    Duration                    : 41 min 23 s
    Bit rate mode               : Constant
    Bit rate                    : 448 kb/s
    Channel(s)                  : 6 channels
    Channel layout              : L R C LFE Ls Rs
    Sampling rate               : 48.0 kHz
    Frame rate                  : 31.250 FPS (1536 SPF)
    Compression mode            : Lossy
    Stream size                 : 133 MiB (4%)
    Title                       : 官話
    Language                    : Chinese
    Service kind                : Complete Main
    Default                     : Yes
    Forced                      : No
    Audio #2
    ID                          : 3
    Format                      : AC-3
    Format/Info                 : Audio Coding 3
    Commercial name             : Dolby Digital
    Codec ID                    : A_AC3
    Duration                    : 41 min 27 s
    Bit rate mode               : Constant
    Bit rate                    : 384 kb/s
    Channel(s)                  : 6 channels
    Channel layout              : L R C LFE Ls Rs
    Sampling rate               : 48.0 kHz
    Frame rate                  : 31.250 FPS (1536 SPF)
    Compression mode            : Lossy
    Stream size                 : 114 MiB (4%)
    Title                       : Thuyết minh
    Language                    : Vietnamese
    Service kind                : Complete Main
    Default                     : No
    Forced                      : Yes

    SCREENSHOT


    [​IMG]

    [​IMG]
    [​IMG]
    [​IMG]
    [​IMG]
    [​IMG]

    DOWNLOAD (40/40 tập)
    Nhấn nút Cảm ơn (dưới chân bài) để thấy link!


    Anh em tải nhanh kẻo link chết nhé.

    Lưu ý: Phụ đề mình là dạng ASS, font chữ chính UVNLaxanh, thiết kế riêng cho độ phân giải 1920 x 1080. Vì vậy để xem được phụ đề đúng như hình mình chụp trên máy tính các bạn cần cài bộ font trên (cùng folder phim).
    Trên các thiết bị khác phụ đề hiển thị theo thiết lập của thiết bị đó. Trên PC nếu anh em không thích font chữ của mình, có thể tùy chỉnh phụ đề phát theo Defaul style của riêng mình.
     
    Chỉnh sửa cuối: 23/5/20
  2. caothudeche

    caothudeche Moderator

    Tham gia ngày:
    24/1/10
    Bài viết:
    3,033
    Đã được cảm ơn:
    1,516
    Đã lên 15 tập.
    Tối mai sẽ lên tiếp cho anh em.
     
    Đắc Trung and Nghia HDviet like this.
  3. caothudeche

    caothudeche Moderator

    Tham gia ngày:
    24/1/10
    Bài viết:
    3,033
    Đã được cảm ơn:
    1,516
    Đã Lên 24/40 tập, đủ sub tập 19/40.
     
    cantoon cảm ơn bài này.
  4. caothudeche

    caothudeche Moderator

    Tham gia ngày:
    24/1/10
    Bài viết:
    3,033
    Đã được cảm ơn:
    1,516
    Đã lên sóng 25 tập đủ sub.
    Tối qua đi làm vài quại nên không lên được nên hôm nay lên bù.
     
    Đắc Trung cảm ơn bài này.
  5. ilovephimbo

    ilovephimbo New Member

    Tham gia ngày:
    16/5/20
    Bài viết:
    8
    Đã được cảm ơn:
    1
    Giới tính:
    Nam
  6. caothudeche

    caothudeche Moderator

    Tham gia ngày:
    24/1/10
    Bài viết:
    3,033
    Đã được cảm ơn:
    1,516
    Đã lên 33/40 tập.
     
    Đắc Trung cảm ơn bài này.
  7. caothudeche

    caothudeche Moderator

    Tham gia ngày:
    24/1/10
    Bài viết:
    3,033
    Đã được cảm ơn:
    1,516
    Đã lên cho anh em 35 tập.
     
    Đắc Trung cảm ơn bài này.
  8. caothudeche

    caothudeche Moderator

    Tham gia ngày:
    24/1/10
    Bài viết:
    3,033
    Đã được cảm ơn:
    1,516
    Anh em nào đã tải tập 32 thì đợi em Reup thì tải lại nhé.
    Em phát hiện ra ở phút 25 bị vấp (bị từ video nguồn), chắc do cú bắn Lục Mạnh Thần Kiếm mạnh quá.
    Em phải cắt bỏ đoạn vấp và sync lại audio đã.
     
    Đắc Trung and lethanhhunglp like this.
  9. lethanhhunglp

    lethanhhunglp New Member

    Tham gia ngày:
    19/6/11
    Bài viết:
    8
    Đã được cảm ơn:
    1
    đang chờ tập 32
     
  10. caothudeche

    caothudeche Moderator

    Tham gia ngày:
    24/1/10
    Bài viết:
    3,033
    Đã được cảm ơn:
    1,516
    Tối nay mình lên nốt.
     
  11. caothudeche

    caothudeche Moderator

    Tham gia ngày:
    24/1/10
    Bài viết:
    3,033
    Đã được cảm ơn:
    1,516
    Đã lên đủ 40/40 tập.
     
    lethanhhunglp and Đắc Trung like this.
  12. NGO DINH HAI

    NGO DINH HAI Well-Known Member

    Tham gia ngày:
    3/11/17
    Bài viết:
    434
    Đã được cảm ơn:
    524
    Giới tính:
    Nam
    hàng gốc của bác hoaitrung hình như có độ phân giải là 1440 x 1080. bác upscale lên thì hình ảnh nó có bị ảnh hưởng gì nhiều không vậy.
     
  13. caothudeche

    caothudeche Moderator

    Tham gia ngày:
    24/1/10
    Bài viết:
    3,033
    Đã được cảm ơn:
    1,516
    Mình đã so rồi nhé, cơ bản là không có khác biệt về chất lượng.
    Chỉ là cắt bỏ viền đen, đưa về 16:9 cho nó tiêu chuẩn.
     
  14. phuocdoi100

    phuocdoi100 Well-Known Member

    Tham gia ngày:
    23/7/09
    Bài viết:
    1,558
    Đã được cảm ơn:
    849
    Giới tính:
    Nam
    Cám ơn Caothudeche nhiều lắm lắm! Bác làm lại luôn bộ Anh Hùng Xạ Điêu thì thật tuyệt vời!
     
  15. caothudeche

    caothudeche Moderator

    Tham gia ngày:
    24/1/10
    Bài viết:
    3,033
    Đã được cảm ơn:
    1,516
    Ý bạn là bản 2006 đúng không.
    Có người làm rồi bạn nhé.
    http://www.hdvietnam.com/threads/the-return-of-the-condor-heroes-2006-1080p-sdr-x265-ac3-than-dieu-dai-hiep-viet-sub-tm.1599506
    Mình thì không chuyên encode, làm cho vui thôi, vì vậy chỉ làm những cái mình ấn tượng sâu, chưa có ai làm hoặc họ làm nhưng mình chưa ưng ý.
    Mình chưa tải xem thử bản trên, nhưng lướt qua hình thấy ổn đấy.
     
    phuocdoi100 cảm ơn bài này.
  16. phuocdoi100

    phuocdoi100 Well-Known Member

    Tham gia ngày:
    23/7/09
    Bài viết:
    1,558
    Đã được cảm ơn:
    849
    Giới tính:
    Nam
    Vì bản kia là x265 nên không xem được trên TV như bản của bạn. Rất thích bộ của bạn vì cắt đoạn giới thiệu đầu và cuối.
     
    caothudeche cảm ơn bài này.
  17. domanhhunglsls

    domanhhunglsls New Member

    Tham gia ngày:
    10/1/14
    Bài viết:
    7
    Đã được cảm ơn:
    0
    Cho e hỏi trong folder download sao phụ đề cái có cái ko thế hả các bác
     
  18. domanhhunglsls

    domanhhunglsls New Member

    Tham gia ngày:
    10/1/14
    Bài viết:
    7
    Đã được cảm ơn:
    0
    bác ơi ko còn tập 32, reup lại hộ e
     
  19. caothudeche

    caothudeche Moderator

    Tham gia ngày:
    24/1/10
    Bài viết:
    3,033
    Đã được cảm ơn:
    1,516
    Đã lên lại đủ rồi bạn nhé (cả sub).
    Nguyên do là chính sách của Fshare, mình đã dừng nạp VIP khá lâu nếu file nào trong một khoảng thời gian không có ai tải thì fshare tự động xóa.
     
    domanhhunglsls cảm ơn bài này.
  20. domanhhunglsls

    domanhhunglsls New Member

    Tham gia ngày:
    10/1/14
    Bài viết:
    7
    Đã được cảm ơn:
    0
    Cảm ơn bác, tập 38 bị sao mà em tải chục lần cứ qua 80% là lỗi ko tải dc tiếp
     

Chia sẻ trang này