[MULTI] The Last Empress S01 1080p NF WEB-DL DDP2.0 x264 ~ Hoàng hậu cuối cùng (Full Vietsub)

Thảo luận trong 'Phim bộ - Series' bắt đầu bởi adm820, 11/1/20.

Tags
  1. adm820

    adm820 Moderator Thành viên BQT

    Tham gia ngày:
    1/12/10
    Bài viết:
    8,028
    Đã được cảm ơn:
    188,798
    Giới tính:
    Nam
    [​IMG]

    upload_2020-1-11_23-24-47.png


    upload_2020-1-11_23-25-16.png


    Mã:

    Format version              : Version 4
    
    	

    File size : 2.62 GiB Duration : 59 min 41 s Overall bit rate mode : Variable Overall bit rate : 6 273 kb/s Encoded date : UTC 2001-01-01 00:00:00 Writing application : mkvmerge v34.0.0 ('Sight and Seen') 64-bit Writing library : libebml v1.3.9 + libmatroska v1.5.2 Video ID : 1 Format : AVC Format/Info : Advanced Video Codec Format profile : High@L4 Format settings : CABAC / 4 Ref Frames Format settings, CABAC : Yes Format settings, Reference : 4 frames Codec ID : V_MPEG4/ISO/AVC Duration : 59 min 41 s Bit rate mode : Variable Bit rate : 6 142 kb/s Maximum bit rate : 20.0 Mb/s Width : 1 920 pixels Height : 1 080 pixels Display aspect ratio : 16:9 Frame rate mode : Constant Frame rate : 23.976 (24000/1001) FPS Color space : YUV Chroma subsampling : 4:2:0 Bit depth : 8 bits Scan type : Progressive Bits/(Pixel*Frame) : 0.124 Stream size : 2.56 GiB (98%) Writing library : x264 core 148 r2715 7e75228 Encoding settings : cabac=1 / ref=4 / deblock=1:0:0 / analyse=0x3:0x111 / me=umh / subme=10 / psy=1 / psy_rd=1.00:0.00 / mixed_ref=1 / me_range=120 / chroma_me=1 / trellis=2 / 8x8dct=1 / cqm=0 / deadzone=21,11 / fast_pskip=1 / chroma_qp_offset=-2 / threads=8 / lookahead_threads=2 / sliced_threads=0 / nr=0 / decimate=1 / interlaced=0 / bluray_compat=0 / stitchable=1 / constrained_intra=0 / bframes=16 / b_pyramid=2 / b_adapt=2 / b_bias=0 / direct=3 / weightb=1 / open_gop=0 / weightp=2 / keyint=240 / keyint_min=121 / scenecut=0 / intra_refresh=0 / rc_lookahead=240 / rc=crf / mbtree=1 / crf=16.0 / qcomp=0.50 / qpmin=6 / qpmax=51 / qpstep=4 / vbv_maxrate=20000 / vbv_bufsize=25000 / crf_max=0.0 / nal_hrd=vbr / filler=0 / ip_ratio=1.40 / aq=1:0.80 Default : Yes Forced : No Audio ID : 2 Format : E-AC-3 Format/Info : Enhanced AC-3 Commercial name : Dolby Digital Plus Codec ID : A_EAC3 Duration : 59 min 41 s Bit rate mode : Constant Bit rate : 128 kb/s Channel(s) : 2 channels Channel layout : L R Sampling rate : 48.0 kHz Frame rate : 31.250 FPS (1536 SPF) Compression mode : Lossy Stream size : 54.6 MiB (2%) Title : Korean [Original] Language : Korean Service kind : Complete Main Default : Yes Forced : No Text #1 ID : 3 Format : UTF-8 Codec ID : S_TEXT/UTF8 Codec ID/Info : UTF-8 Plain Text Duration : 58 min 31 s Bit rate : 78 b/s Count of elements : 774 Stream size : 33.5 KiB (0%) Title : Arabic Language : Arabic Default : No Forced : No Text #2 ID : 4 Format : UTF-8 Codec ID : S_TEXT/UTF8 Codec ID/Info : UTF-8 Plain Text Duration : 58 min 31 s Bit rate : 50 b/s Count of elements : 700 Stream size : 21.6 KiB (0%) Title : German Language : German Default : No Forced : No Text #3 ID : 5 Format : UTF-8 Codec ID : S_TEXT/UTF8 Codec ID/Info : UTF-8 Plain Text Duration : 58 min 31 s Bit rate : 55 b/s Count of elements : 774 Stream size : 23.7 KiB (0%) Title : English Language : English Default : Yes Forced : No Text #4 ID : 6 Format : UTF-8 Codec ID : S_TEXT/UTF8 Codec ID/Info : UTF-8 Plain Text Duration : 58 min 30 s Bit rate : 54 b/s Count of elements : 774 Stream size : 23.3 KiB (0%) Title : French Language : French Default : No Forced : No Text #5 ID : 7 Format : UTF-8 Codec ID : S_TEXT/UTF8 Codec ID/Info : UTF-8 Plain Text Duration : 58 min 30 s Bit rate : 48 b/s Count of elements : 746 Stream size : 20.9 KiB (0%) Title : Indonesian Language : Indonesian Default : No Forced : No Text #6 ID : 8 Format : UTF-8 Codec ID : S_TEXT/UTF8 Codec ID/Info : UTF-8 Plain Text Duration : 58 min 30 s Bit rate : 129 b/s Count of elements : 745 Stream size : 55.5 KiB (0%) Title : Thai Language : Thai Default : No Forced : No Text #7 ID : 9 Format : UTF-8 Codec ID : S_TEXT/UTF8 Codec ID/Info : UTF-8 Plain Text Duration : 58 min 31 s Bit rate : 53 b/s Count of elements : 753 Stream size : 22.9 KiB (0%) Title : Turkish Language : Turkish Default : No Forced : No Text #8 ID : 10 Format : UTF-8 Codec ID : S_TEXT/UTF8 Codec ID/Info : UTF-8 Plain Text Duration : 58 min 31 s Bit rate : 64 b/s Count of elements : 774 Stream size : 27.7 KiB (0%) Title : Vietnamese Language : Vietnamese Default : No Forced : No Text #9 ID : 11 Format : UTF-8 Codec ID : S_TEXT/UTF8 Codec ID/Info : UTF-8 Plain Text Duration : 58 min 30 s Bit rate : 41 b/s Count of elements : 745 Stream size : 17.9 KiB (0%) Title : Simplified Chinese Language : Chinese Default : No Forced : No Text #10 ID : 12 Format : UTF-8 Codec ID : S_TEXT/UTF8 Codec ID/Info : UTF-8 Plain Text Duration : 58 min 30 s Bit rate : 44 b/s Count of elements : 743 Stream size : 19.2 KiB (0%) Title : Traditional Chinese Language : Chinese Default : No Forced : No
    [​IMG] [​IMG] [​IMG]


    Link tải

    Nhấn nút Cảm ơn (dưới chân bài) để thấy link!
     
    Mr.Phuc, masbocil, lanphan and 49 others like this.
  2. hoangthanh_mobi

    hoangthanh_mobi Member

    Tham gia ngày:
    21/1/11
    Bài viết:
    48
    Đã được cảm ơn:
    87
    Tập 14 hỏng rồi bác ạ
     
  3. hihipyvn

    hihipyvn Member

    Tham gia ngày:
    27/11/09
    Bài viết:
    42
    Đã được cảm ơn:
    3
    Up tiếp đi bạn, cám ơn
     

Chia sẻ trang này