[Fshare] The X-Files Complete Series 1080p BluRay Remux AVC DTS-HD MA 5.1-EPSiLON ~ Hồ Sơ Tuyệt Mật (Vietsub)

Thảo luận trong 'Phim bộ - Series' bắt đầu bởi tremocoivo, 28/5/20.

  1. tremocoivo

    tremocoivo Well-Known Member

    Tham gia ngày:
    25/2/10
    Bài viết:
    617
    Đã được cảm ơn:
    18,165
    Giới tính:
    Nam

    Hồ Sơ Tuyệt Mật (1993 - 2018)
    The X-Files Complete Series 1080p BluRay REMUX AVC DTS-HD MA 5.1-EPSiLON {Sub Việt Mux Sẵn}

    [​IMG] [​IMG]
    https://www.imdb.com/title/tt0106179

    Hồ sơ tuyệt mật (tên gốc tiếng Anh: The X-files) là một bộ phim truyền hình dài tập khoa học viễn tưởng nổi tiếng của Hoa Kỳ. Bộ phim của Chris Carter này được trình chiếu bởi FOX (Hoa Kỳ) từ ngày 10 tháng 9 năm 1992 và kết thúc ngày 19 tháng 5 năm 2002. Bộ phim mang tính chất của thời kỳ thập niên 1990, khi người dân không mấy tin tưởng vào chính phủ trong khi rất tin vào việc tồn tại sự sống ngoài Trái Đất. Phim đã từng được trình chiếu trên kênh truyền hình VTV3 và VTV6 của Việt Nam.


    Trong bộ phim, đặc vụ FBI Fox Mulder (David Duchovny) do muốn tìm lại người em gái mất tích của mình, đã dấn thân vào điều tra tại "X-files" với niềm tin rằng em gái của anh đã bị bắt cóc bởi người ngoài Trái Đất. Mulder rất tin tưởng vào sự tồn tại của người ngoài Trái Đất trong khi người tham gia điều tra cùng Fox Mulder là đặc vụ Dana Scully (Gillian Anderson). Ban đầu, Scully không tin vào những điều mà Fox Mulder nói, nhưng với những bằng chứng cụ thể cùng với những vụ án thực tế cô và Mulder trải qua, dần dần Scully đã tin vào những hiện tượng kỳ bí.

    Tuy nhiên, tới cuối phim thì nhân vật Fox Mulder xuất hiện ít hơn và có thêm sự xuất hiện của một nhân vật chính khác là đặc vụ John Doggett (Robert Patrick). Tới phiên mình, John Doggett lại nghi ngờ tính xác thực của các vụ án trong X-files và lúc này, chính đặc vụ Scully là người đã khiến cho John Doggett dần dần tin vào X-files.

    Bộ phim The X-files là bộ phim truyền hình dài tập nhất về đề tài khoa học viễn tưởng được biết đến tại Hoa Kỳ và được tạp chí TV Guide bình chọn ở vị trí thứ 37 trong các bộ phim hay nhất mọi thời đại.

    Mã:
    General
    Complete name  : The.X-Files.S01E01.Pilot.1080p.BluRay.REMUX.AVC.DTS-HD.MA.5.1-EPSiLON.mkv
    Format  : Matroska
    Format version  : Version 4
    File size  : 9.69 GiB
    Duration  : 48 min 14 s
    Overall bit rate mode  : Variable
    
    
    Overall bit rate  : 28.8 Mb/s
    Encoded date  : UTC 2020-05-12 15:43:07
    Writing application  : mkvmerge v43.0.0 ('The Quartermaster') 64-bit
    Writing library  : libebml v1.3.10 + libmatroska v1.5.2
    Video
    ID  : 1
    Format  : AVC
    Format/Info  : Advanced Video Codec
    Format profile  : High@L4.1
    Format settings  : CABAC / 4 Ref Frames
    Format settings, CABAC  : Yes
    Format settings, Reference  : 4 frames
    Codec ID  : V_MPEG4/ISO/AVC
    Duration  : 48 min 14 s
    Bit rate mode  : Variable
    Bit rate  : 24.7 Mb/s
    Maximum bit rate  : 38.0 Mb/s
    Width  : 1 920 pixels
    Height  : 1 080 pixels
    Display aspect ratio  : 16:9
    Frame rate mode  : Constant
    Frame rate  : 23.976 (24000/1001) FPS
    Color space  : YUV
    Chroma subsampling  : 4:2:0
    Bit depth  : 8 bits
    Scan type  : Progressive
    Bits/(Pixel*Frame)  : 0.497
    Stream size  : 8.33 GiB (86%)
    Title  : MPEG-4 AVC Video / 24995 kbps / 1080p / 23.976 fps / 16:9 / High Profile 4.1
    Default  : Yes
    Forced  : No
    Audio
    ID  : 2
    Format  : DTS XLL
    Format/Info  : Digital Theater Systems
    Commercial name  : DTS-HD Master Audio
    Codec ID  : A_DTS
    Duration  : 48 min 14 s
    Bit rate mode  : Variable
    Bit rate  : 3 973 kb/s
    Channel(s)  : 6 channels
    Channel layout  : C L R Ls Rs LFE
    Sampling rate  : 48.0 kHz
    Frame rate  : 93.750 FPS (512 SPF)
    Bit depth  : 24 bits
    Compression mode  : Lossless
    Stream size  : 1.34 GiB (14%)
    Title  : DTS-HD Master Audio / 5.1 / 48 kHz / 3973 kbps / 24-bit
    Language  : English
    Default  : Yes
    Forced  : No
    Text #1
    ID  : 3
    Format  : PGS
    Muxing mode  : zlib
    Codec ID  : S_HDMV/PGS
    Codec ID/Info  : Picture based subtitle format used on BDs/HD-DVDs
    Duration  : 47 min 44 s
    Bit rate  : 38.2 kb/s
    Count of elements  : 1068
    Stream size  : 13.1 MiB (0%)
    Title  : SDH
    Language  : English
    Default  : No
    Forced  : No
    Text #2
    ID  : 4
    Format  : PGS
    Muxing mode  : zlib
    Codec ID  : S_HDMV/PGS
    Codec ID/Info  : Picture based subtitle format used on BDs/HD-DVDs
    Duration  : 48 min 0 s
    Bit rate  : 23.5 kb/s
    Count of elements  : 988
    Stream size  : 8.06 MiB (0%)
    Language  : Japanese
    Default  : No
    Forced  : No
    Text #3
    ID  : 5
    Format  : PGS
    Muxing mode  : zlib
    Codec ID  : S_HDMV/PGS
    Codec ID/Info  : Picture based subtitle format used on BDs/HD-DVDs
    Duration  : 48 min 6 s
    Bit rate  : 38.6 kb/s
    Count of elements  : 1038
    Stream size  : 13.3 MiB (0%)
    Language  : Spanish
    Default  : No
    Forced  : No
    Text #4
    ID  : 6
    Format  : PGS
    Muxing mode  : zlib
    Codec ID  : S_HDMV/PGS
    Codec ID/Info  : Picture based subtitle format used on BDs/HD-DVDs
    Duration  : 47 min 57 s
    Bit rate  : 36.4 kb/s
    Count of elements  : 1042
    Stream size  : 12.5 MiB (0%)
    Language  : French
    Default  : No
    Forced  : No
    Text #5
    ID  : 7
    Format  : PGS
    Muxing mode  : zlib
    Codec ID  : S_HDMV/PGS
    Codec ID/Info  : Picture based subtitle format used on BDs/HD-DVDs
    Duration  : 47 min 57 s
    Bit rate  : 40.4 kb/s
    Count of elements  : 1102
    Stream size  : 13.9 MiB (0%)
    Language  : German
    Default  : No
    Forced  : No
    Text #6
    ID  : 8
    Format  : UTF-8
    Codec ID  : S_TEXT/UTF8
    Codec ID/Info  : UTF-8 Plain Text
    Duration  : 47 min 35 s
    Bit rate  : 73 b/s
    Count of elements  : 489
    Stream size  : 25.5 KiB (0%)
    Title  : Vietnamese subtitles
    Language  : Vietnamese
    Default  : Yes
    Forced  : No
    Menu
    00:00:00.000  : en:Chapter 1
    00:02:17.262  : en:Chapter 2
    00:11:36.321  : en:Chapter 3
    00:14:44.801  : en:Chapter 4
    00:17:05.816  : en:Chapter 5
    00:20:18.551  : en:Chapter 6
    00:23:24.320  : en:Chapter 7
    00:30:35.709  : en:Chapter 8
    00:34:33.905  : en:Chapter 9
    00:38:44.822  : en:Chapter 10
    00:43:43.454  : en:Chapter 11
    00:47:45.237  : en:Chapter 12
    
    SCREENSHOT
    [​IMG]
    DOWNLOAD TRỌN BỘ 11 SEASON

    ======== ĐÃ HOÀN THÀNH ==========
    Chân thành cảm ơn các bác đã ủng hộ và theo dõi TV Series này của mình.
     
    Chỉnh sửa cuối: 14/7/20
  2. tiensh98

    tiensh98 Well-Known Member

    Tham gia ngày:
    22/10/17
    Bài viết:
    687
    Đã được cảm ơn:
    251
    Giới tính:
    Nam
    hàng nặng đô , phê lòi :)) , e mới xem đến ss4 vài tháng trước , h có hàng ngon của bác để xem tiếp rồi :)
     
  3. tuankbas

    tuankbas Uploader

    Tham gia ngày:
    12/5/19
    Bài viết:
    3,081
    Đã được cảm ơn:
    122,268
    Giới tính:
    Nam
    Nghề nghiệp:
    công chức
    Nơi ở:
    Thành phố Vinh- Nghệ An
    Bữa định up mà ngán quá,phê lòi
     
    linhlun and Pham Van Si like this.
  4. Vooc2707

    Vooc2707 Active Member

    Tham gia ngày:
    6/4/20
    Bài viết:
    219
    Đã được cảm ơn:
    91
    Giới tính:
    Nam
    Ôi trời, mong ước bao năm giờ đã có. Kéo thôi! Đây đủ subviet phải không bác chủ?
     
    Chỉnh sửa cuối: 28/5/20
    Nguyên Phương 70 cảm ơn bài này.
  5. phu59544

    phu59544 Member

    Tham gia ngày:
    18/11/19
    Bài viết:
    68
    Đã được cảm ơn:
    18
    Giới tính:
    Nam
    Thank bạn chia sẻ khi nào rãnh lên prison break luôn hi.
     
  6. tremocoivo

    tremocoivo Well-Known Member

    Tham gia ngày:
    25/2/10
    Bài viết:
    617
    Đã được cảm ơn:
    18,165
    Giới tính:
    Nam
    Đầy đủ sub 11 season luôn nha.
     
  7. tremocoivo

    tremocoivo Well-Known Member

    Tham gia ngày:
    25/2/10
    Bài viết:
    617
    Đã được cảm ơn:
    18,165
    Giới tính:
    Nam
    Hình như bộ này đã có người post trên diễn đàn rồi mà.
     
    anhtien_hd cảm ơn bài này.
  8. phu59544

    phu59544 Member

    Tham gia ngày:
    18/11/19
    Bài viết:
    68
    Đã được cảm ơn:
    18
    Giới tính:
    Nam
    Bác Hoài Trung up còn thiếu bạn.
     
  9. Vooc2707

    Vooc2707 Active Member

    Tham gia ngày:
    6/4/20
    Bài viết:
    219
    Đã được cảm ơn:
    91
    Giới tính:
    Nam
    OK bạn. Phải kéo bộ này thôi, dù quá tốn kém, :p
     
  10. thanhfuta

    thanhfuta Active Member

    Tham gia ngày:
    30/8/10
    Bài viết:
    338
    Đã được cảm ơn:
    152
    Giới tính:
    Nam
    thanks bác nhiều lắm
     
  11. ahipsa

    ahipsa Well-Known Member

    Tham gia ngày:
    24/2/19
    Bài viết:
    995
    Đã được cảm ơn:
    709
    Giới tính:
    Nam
    Nghề nghiệp:
    SINH VIÊN
    Nơi ở:
    BÌNH DƯƠNG
    Hóng bác lên luôn bộ Doctor Who :D
     
  12. tremocoivo

    tremocoivo Well-Known Member

    Tham gia ngày:
    25/2/10
    Bài viết:
    617
    Đã được cảm ơn:
    18,165
    Giới tính:
    Nam
    Doctor Who dài đằng đẳng, đến giờ vẫn chưa hết. Sub kiếm còn mệt nữa..Bộ nào Complete rồi cho khỏe bác ạ
     
    ahipsa cảm ơn bài này.
  13. ahipsa

    ahipsa Well-Known Member

    Tham gia ngày:
    24/2/19
    Bài viết:
    995
    Đã được cảm ơn:
    709
    Giới tính:
    Nam
    Nghề nghiệp:
    SINH VIÊN
    Nơi ở:
    BÌNH DƯƠNG
    OK bác :v
     
  14. Vooc2707

    Vooc2707 Active Member

    Tham gia ngày:
    6/4/20
    Bài viết:
    219
    Đã được cảm ơn:
    91
    Giới tính:
    Nam
    Quất luôn bộ 24 giờ chống khủng bố đi bác @tremocoivo
     
    VISY cảm ơn bài này.
  15. tremocoivo

    tremocoivo Well-Known Member

    Tham gia ngày:
    25/2/10
    Bài viết:
    617
    Đã được cảm ơn:
    18,165
    Giới tính:
    Nam
    UPDATE SEASON 05
     
    Sivinh Sabia and Vooc2707 like this.
  16. phu59544

    phu59544 Member

    Tham gia ngày:
    18/11/19
    Bài viết:
    68
    Đã được cảm ơn:
    18
    Giới tính:
    Nam
    đã dow xong 5 season lên típ anh hi.
     
    tremocoivo cảm ơn bài này.
  17. Vooc2707

    Vooc2707 Active Member

    Tham gia ngày:
    6/4/20
    Bài viết:
    219
    Đã được cảm ơn:
    91
    Giới tính:
    Nam
    Nhanh vãi. Mình đc 3 season rồi. Tốn bộ nhớ khiếp.
     
  18. phu59544

    phu59544 Member

    Tham gia ngày:
    18/11/19
    Bài viết:
    68
    Đã được cảm ơn:
    18
    Giới tính:
    Nam
    Mình dow 2 con vps nên khá nhanh dow máy nhà chắc thiên thu hi.
     
  19. Vooc2707

    Vooc2707 Active Member

    Tham gia ngày:
    6/4/20
    Bài viết:
    219
    Đã được cảm ơn:
    91
    Giới tính:
    Nam
    Mình down bằng Fshare, haizzz
     
  20. nhocxitrum

    nhocxitrum Active Member

    Tham gia ngày:
    20/6/09
    Bài viết:
    169
    Đã được cảm ơn:
    176
    Giới tính:
    Nam
    ôi nặng vãi
     

Chia sẻ trang này