[Fshare] Thời Niên Thiếu Bao Thanh Thiên I - 2000 (Young Justice Bao 2000)[7DVD9][4 Audio]

Thảo luận trong 'mHD, SD' bắt đầu bởi cantoon, 27/3/19.

  1. cantoon

    cantoon Well-Known Member

    Tham gia ngày:
    29/12/12
    Bài viết:
    427
    Đã được cảm ơn:
    2,705
    Điểm thành tích:
    93
    Tiền:
    522 CR
    [​IMG]
    [​IMG]
    [​IMG]
    [​IMG]
    [​IMG]
    [​IMG]

    [​IMG]

    Mã:
    Format                         : Matroska
    Format version                 : Version 4
    File size                      : 7.02 GiB
    Duration                       : 3 h 36 min
    Overall bit rate               : 4 634 kb/s
    Encoded date                   : UTC 2019-03-25 06:21:49
    Writing application            : mkvmerge v28.2.0 ('The Awakening') 64-bit
    Writing library                : libebml v1.3.6 + libmatroska v1.4.9
    Video
    
    
    ID                             : 3
    
    
    Format                         : MPEG Video
    Format version                 : Version 2
    Format profile                 : Main@Main
    Format settings                : BVOP
    Format settings, BVOP          : Yes
    Format settings, Matrix        : Default
    Format settings, GOP           : M=2, N=16
    Format settings, picture struc : Frame
    Codec ID                       : V_MPEG2
    Codec ID/Info                  : MPEG 1 or 2 Video
    Duration                       : 3 h 36 min
    Bit rate mode                  : Constant
    Bit rate                       : 3 499 kb/s
    Width                          : 720 pixels
    Height                         : 480 pixels
    Display aspect ratio           : 4:3
    Frame rate mode                : Constant
    Frame rate                     : 29.970 (30000/1001) FPS
    Standard                       : NTSC
    Color space                    : YUV
    Chroma subsampling             : 4:2:0
    Bit depth                      : 8 bits
    Scan type                      : Interlaced
    Scan order                     : Top Field First
    Compression mode               : Lossy
    Bits/(Pixel*Frame)             : 0.338
    Time code of first frame       : 00:01:28;10
    Time code source               : Group of pictures header
    GOP, Open/Closed               : Open
    GOP, Open/Closed of first fram : Closed
    Stream size                    : 5.28 GiB (75%)
    Language                       : English
    Default                        : No
    Forced                         : No
    Audio #1
    ID                             : 1
    Format                         : AAC LC
    Format/Info                    : Advanced Audio Codec Low Complexity
    Codec ID                       : A_AAC-2
    Duration                       : 3 h 36 min
    Bit rate                       : 192 kb/s
    Channel(s)                     : 2 channels
    Channel layout                 : L R
    Sampling rate                  : 44.1 kHz
    Frame rate                     : 43.066 FPS (1024 SPF)
    Compression mode               : Lossy
    Stream size                    : 293 MiB (4%)
    Title                          : VTC11
    Language                       : Vietnamese
    Default                        : Yes
    Forced                         : Yes
    Audio #2
    ID                             : 2
    Format                         : AAC LC
    Format/Info                    : Advanced Audio Codec Low Complexity
    Codec ID                       : A_AAC-2
    Duration                       : 3 h 36 min
    Bit rate                       : 192 kb/s
    Channel(s)                     : 2 channels
    Channel layout                 : L R
    Sampling rate                  : 44.1 kHz
    Frame rate                     : 43.066 FPS (1024 SPF)
    Compression mode               : Lossy
    Stream size                    : 294 MiB (4%)
    Title                          : USLT
    Language                       : Vietnamese
    Default                        : No
    Forced                         : No
    Audio #3
    ID                             : 4
    Format                         : AC-3
    Format/Info                    : Audio Coding 3
    Commercial name                : Dolby Digital
    Codec ID                       : A_AC3
    Duration                       : 3 h 36 min
    Bit rate mode                  : Constant
    Bit rate                       : 384 kb/s
    Channel(s)                     : 6 channels
    Channel layout                 : L R C LFE Ls Rs
    Sampling rate                  : 48.0 kHz
    Frame rate                     : 31.250 FPS (1536 SPF)
    Bit depth                      : 16 bits
    Compression mode               : Lossy
    Stream size                    : 594 MiB (8%)
    Title                          : Surround 5.1
    Language                       : Chinese
    Service kind                   : Complete Main
    Default                        : No
    Forced                         : No
    Audio #4
    ID                             : 5
    Format                         : AC-3
    Format/Info                    : Audio Coding 3
    Commercial name                : Dolby Digital
    Codec ID                       : A_AC3
    Duration                       : 3 h 36 min
    Bit rate mode                  : Constant
    Bit rate                       : 384 kb/s
    Channel(s)                     : 6 channels
    Channel layout                 : L R C LFE Ls Rs
    Sampling rate                  : 48.0 kHz
    Frame rate                     : 31.250 FPS (1536 SPF)
    Bit depth                      : 16 bits
    Compression mode               : Lossy
    Stream size                    : 594 MiB (8%)
    Title                          : Surround 5.1
    Language                       : Chinese
    Service kind                   : Complete Main
    Default                        : No
    Forced                         : No
    Menu
    00:00:00.033                   : en:Chapter 01
    00:02:08.428                   : en:Chapter 02
    00:44:17.221                   : en:Chapter 03
    01:27:46.227                   : en:Chapter 04
    01:54:23.022                   : en:Chapter 05
    02:10:19.244                   : en:Chapter 06
    02:52:08.217                   : en:Chapter 07
    03:34:20.080                   : en:Chapter 08
    Diễn Viên:
     
    #1 +2 CR
  2. cantoon

    cantoon Well-Known Member

    Tham gia ngày:
    29/12/12
    Bài viết:
    427
    Đã được cảm ơn:
    2,705
    Điểm thành tích:
    93
    Tiền:
    522 CR
    Video được xuất từ DVD9.
    Audio USLT khá khó Mux, không thể tránh khỏi nhiều đoạn Audio vs Video không khớp 100%, mình đã cố gắng sync để khớp 98.99%:D

    *2 Audio lồng tiếng Việt: USLT với hình như của VNLT (mình thấy chiếu trên VTC11)
    *2 Audio tiếng Trung

    19/06/2019
    Update bản tách tập để các bạn dễ xem

    GDrive: 40/40 Tập
    Link tải phim
    Nhấn nút Cảm ơn (dưới chân bài) để thấy link!


    Phần 2: http://www.hdvietnam.com/threads/th...01-young-justice-bao-2001-7dvd9-uslt.1507233/
    Phần 3: http://www.hdvietnam.com/threads/th...oung-justice-bao-iii-2006-ffvn-45-45.1505709/
    Phần 4: http://www.hdvietnam.com/threads/ta...-thanh-thien-3-audio-40-40-dvd-remux.1510723/
     
    Chỉnh sửa cuối: 15/7/19 lúc 16:27
    #2 +1 CR
    holmes, zsmj0203, ItsmeAJ and 117 others like this.
  3. KeepSmile0809

    KeepSmile0809 Well-Known Member

    Tham gia ngày:
    12/1/15
    Bài viết:
    149
    Đã được cảm ơn:
    392
    Điểm thành tích:
    63
    Tiền:
    260 CR
    tuyệt, đang cần bộ này. Có audio lồng tiếng ko b
     
  4. cantoon

    cantoon Well-Known Member

    Tham gia ngày:
    29/12/12
    Bài viết:
    427
    Đã được cảm ơn:
    2,705
    Điểm thành tích:
    93
    Tiền:
    522 CR
    có USLT + VNLT nhé
     
    #4 +1 CR
    kimcuonghotvit and KeepSmile0809 like this.
  5. cantoon

    cantoon Well-Known Member

    Tham gia ngày:
    29/12/12
    Bài viết:
    427
    Đã được cảm ơn:
    2,705
    Điểm thành tích:
    93
    Tiền:
    522 CR
    lên DVD1! mạng chậm quá, để mai mình up dần nhé!
     
    #5 +1 CR
    NTA020495 and phithuyhoahoa like this.
  6. phithuyhoahoa

    phithuyhoahoa Well-Known Member

    Tham gia ngày:
    17/10/11
    Bài viết:
    604
    Đã được cảm ơn:
    530
    Điểm thành tích:
    93
    Tiền:
    1,190 CR
    Mỗi ngày up 1 đĩa cũng được vì 1 đĩa xem dài :) Up ào cái hết lại mắc bệnh ... tua :(
     
    cantoon cảm ơn bài này.
  7. nghianhan1176411

    nghianhan1176411 Well-Known Member

    Tham gia ngày:
    23/11/12
    Bài viết:
    295
    Đã được cảm ơn:
    281
    Điểm thành tích:
    63
    Tiền:
    306 CR
    Làm bộ khủng ^^
     
    cantoon cảm ơn bài này.
  8. [Jackie]

    [Jackie] Well-Known Member

    Tham gia ngày:
    11/12/18
    Bài viết:
    122
    Đã được cảm ơn:
    1,347
    Điểm thành tích:
    93
    Giới tính:
    Nam
    Tiền:
    136 CR
    Phim này ngày xưa coi lúc cắt đầu ghê vlh, không dám đi đái :D:D
     
    cantoon cảm ơn bài này.
  9. cantoon

    cantoon Well-Known Member

    Tham gia ngày:
    29/12/12
    Bài viết:
    427
    Đã được cảm ơn:
    2,705
    Điểm thành tích:
    93
    Tiền:
    522 CR
    sang tuần làm bộ của Bác gửi:D:D
     
    #9 +1 CR
  10. kiemddao

    kiemddao Member

    Tham gia ngày:
    13/8/14
    Bài viết:
    57
    Đã được cảm ơn:
    14
    Điểm thành tích:
    8
    Tiền:
    327 CR
    cam on ban rat nhieu. kiem phim nay lau roi
     
    cantoon cảm ơn bài này.
  11. ngo1984

    ngo1984 Active Member

    Tham gia ngày:
    26/2/10
    Bài viết:
    113
    Đã được cảm ơn:
    61
    Điểm thành tích:
    28
    Tiền:
    1,285 CR
    Mình down thấy ghi là 5/7 DVD, vậy là còn thiếu 2 đĩa 6, 7 hả bác chủ?
     
    madau999, billythekids and fsvnhd like this.
  12. cantoon

    cantoon Well-Known Member

    Tham gia ngày:
    29/12/12
    Bài viết:
    427
    Đã được cảm ơn:
    2,705
    Điểm thành tích:
    93
    Tiền:
    522 CR
    còn 2 DVD nữa nhé, để CN mình up nốt
     
    ngo1984 cảm ơn bài này.
  13. cantoon

    cantoon Well-Known Member

    Tham gia ngày:
    29/12/12
    Bài viết:
    427
    Đã được cảm ơn:
    2,705
    Điểm thành tích:
    93
    Tiền:
    522 CR
    7/7 Done!
     
    phithuyhoahoa cảm ơn bài này.
  14. micheal010282

    micheal010282 Member

    Tham gia ngày:
    12/11/17
    Bài viết:
    109
    Đã được cảm ơn:
    23
    Điểm thành tích:
    18
    Giới tính:
    Nam
    Tiền:
    109 CR
    thanks
     
  15. jimmykid

    jimmykid Active Member

    Tham gia ngày:
    21/9/10
    Bài viết:
    165
    Đã được cảm ơn:
    48
    Điểm thành tích:
    28
    Tiền:
    653 CR
    Giờ mới thấy bộ này, thx bác, lên ytube coi thiếu lên thiếu xuống, âm lượng thì quá tệ, may là có bác làm bộ này.

    Bác ơi, bác làm luôn bộ Hoa Mộc Lan của Triệu Văn Trác đóng đi bác
     
    cantoon cảm ơn bài này.
  16. cantoon

    cantoon Well-Known Member

    Tham gia ngày:
    29/12/12
    Bài viết:
    427
    Đã được cảm ơn:
    2,705
    Điểm thành tích:
    93
    Tiền:
    522 CR
    19/06/2019
    Update bản tách tập để các bạn dễ xem

    GDrive: 40/40 Tập
    Link tải phim
    Nhấn nút Cảm ơn (dưới chân bài) để thấy link!
     
    Chỉnh sửa cuối: 22/6/19
  17. shinahha

    shinahha Well-Known Member

    Tham gia ngày:
    12/4/12
    Bài viết:
    277
    Đã được cảm ơn:
    273
    Điểm thành tích:
    63
    Giới tính:
    Nam
    Tiền:
    416 CR
    Làm thêm bản audio sanyang trên youtube có đi nha ad
     

Chia sẻ trang này