[Thúy Nga|Ca Nhạc| 1 link] Thuy Nga Paris By Night 108 2013 : Time - Thoi Gian 1080P Bluray x264 AAC

Thảo luận trong 'up.4share.vn' bắt đầu bởi bothan1, 3/6/13.

  1. bothan1

    bothan1 New Member

    Tham gia ngày:
    21/9/11
    Bài viết:
    1,788
    Đã được thích:
    0
    Điểm thành tích:
    0
    Thuy Nga Paris By Night 108 2013 : Time - Thoi Gian 1080P Bluray x264 AAC
    [​IMG]
    Mã:
    General
    Complete name                  : E:PBN108.1080pParis.By.Night.108.Time.1080P.mp4
    Format                         : MPEG-4
    Format profile                 : Base Media
    Codec ID                       : isom
    File size                      : 7.78 GiB
    Duration                       : 4h 26mn
    Overall bit rate mode          : Variable
    Overall bit rate               : 4 178 Kbps
    Writing application            : Lavf54.1.100
    
    
    Video
    ID                             : 1
    Format                         : AVC
    Format/Info                    : Advanced Video Codec
    Format profile                 : High@L4.1
    Format settings, CABAC         : Yes
    Format settings, ReFrames      : 3 frames
    Codec ID                       : avc1
    Codec ID/Info                  : Advanced Video Coding
    Duration                       : 4h 26mn
    Bit rate mode                  : Variable
    Bit rate                       : 3 845 Kbps
    Maximum bit rate               : 8 000 Kbps
    Width                          : 1 920 pixels
    Height                         : 1 080 pixels
    Display aspect ratio           : 16:9
    Frame rate mode                : Variable
    Frame rate                     : 29.970 fps
    Minimum frame rate             : 29.412 fps
    Maximum frame rate             : 30.303 fps
    Standard                       : NTSC
    Color space                    : YUV
    Chroma subsampling             : 4:2:0
    Bit depth                      : 8 bits
    Scan type                      : MBAFF
    Bits/(Pixel*Frame)             : 0.062
    Stream size                    : 7.16 GiB (92%)
    Writing library                : x264 core 114
    Encoding settings              : cabac=1 / ref=3 / deblock=1:0:0 / analyse=0x3:0x113 / me=hex / subme=7 / psy=1 / psy_rd=1.00:0.00 / mixed_ref=1 / me_range=16 / chroma_me=1 / trellis=1 / 8x8dct=1 / cqm=2 / deadzone=21,11 / fast_pskip=1 / chroma_qp_offset=-2 / threads=12 / sliced_threads=0 / slices=1 / nr=0 / decimate=1 / interlaced=tff / constrained_intra=0 / bframes=3 / b_pyramid=0 / b_adapt=1 / b_bias=0 / direct=1 / weightb=1 / open_gop=0 / weightp=0 / keyint=250 / keyint_min=25 / scenecut=40 / intra_refresh=0 / rc_lookahead=40 / rc=crf / mbtree=1 / crf=26.0 / qcomp=0.60 / qpmin=3 / qpmax=69 / qpstep=4 / vbv_maxrate=8000 / vbv_bufsize=7995 / crf_max=51.0 / nal_hrd=vbr / ip_ratio=1.40 / aq=1:1.00
    Color primaries                : BT.709-5, BT.1361, IEC 61966-2-4, SMPTE RP177
    Transfer characteristics       : BT.709-5, BT.1361
    Matrix coefficients            : BT.709-5, BT.1361, IEC 61966-2-4 709, SMPTE RP177
    
    
    Audio
    ID                             : 2
    Format                         : AAC
    Format/Info                    : Advanced Audio Codec
    Format profile                 : LC
    Codec ID                       : 40
    Duration                       : 4h 26mn
    Bit rate mode                  : Constant
    Bit rate                       : 320 Kbps
    Channel(s)                     : 2 channels
    Channel positions              : Front: L R
    Sampling rate                  : 48.0 KHz
    Compression mode               : Lossy
    Delay relative to video        : -33ms
    Stream size                    : 610 MiB (8%)
    [video=youtube;kHE2Kz8qsY8]http://www.youtube.com/watch?feature=player_embedded&v=kHE2Kz8qsY8[/video]
    1 Link 7.78 Gb
     
  2. doquochung

    doquochung New Member

    Tham gia ngày:
    12/11/10
    Bài viết:
    24
    Đã được thích:
    0
    Điểm thành tích:
    0
    Ðề: [Thúy Nga|Ca Nhạc| 1 link] Thuy Nga Paris By Night 108 2013 : Time - Thoi Gian 1080P Bluray x264 AAC

    bạn ơi sao tôi down bản này về thấy hình chậm hơn so với tiếng vậy
     

Chia sẻ trang này