[Tình cảm | 1 link] Cairo Time (2009) LiMiTED 720p Blu-ray x264-DIMENSION

Thảo luận trong 'Megashare.vn' bắt đầu bởi Vista™, 31/1/10.

  1. Vista™

    Vista™ New Member

    Tham gia ngày:
    15/2/09
    Bài viết:
    1,946
    Đã được cảm ơn:
    352
    Điểm thành tích:
    0
    Nghề nghiệp:
    Uploader, Encoder, OC
    Nơi ở:
    Brooklyn, NY, USA
    Web:
    Tiền:
    1 CR
    Cairo Time (2009) LiMiTED.720p.Blu-ray.x264-DIMENSION

    [​IMG]
    [​IMG]
    Media Info:
    Mã:
    Format                           : Matroska
    File size                        : 4.37 GiB
    Duration                         : 1h 29mn
    Overall bit rate                 : 6 980 Kbps
    Encoded date                     : UTC 2010-01-28 23:24:12
    Writing application              : mkvmerge v3.0.0 
    Writing library                  : libebml v0.7.9 + libmatroska v0.8.1
    Video
    ID                               : 1
    Format                           : AVC
    Format/Info                      : Advanced Video Codec
    Format profile                   : High@L4.1
    Format settings, CABAC           : Yes
    Format settings, ReFrames        : 5 frames
    Muxing mode                      : Container profile=Unknown@4.1
    Codec ID                         : V_MPEG4/ISO/AVC
    Duration                         : 1h 29mn
    Bit rate                         : 6 393 Kbps
    Nominal bit rate                 : 6 532 Kbps
    Width                            : 1 280 pixels
    Height                           : 544 pixels
    Display aspect ratio             : 2.35:1
    Frame rate                       : 23.976 fps
    Resolution                       : 8 bits
    Colorimetry                      : 4:2:0
    Scan type                        : Progressive
    Bits/(Pixel*Frame)               : 0.383
    Stream size                      : 4.00 GiB (91%)
    Writing library                  : x264 core 80 r1376 3feaec2
    Language                         : English
    Audio
    ID                               : 2
    Format                           : AC-3
    Format/Info                      : Audio Coding 3
    Codec ID                         : A_AC3
    Duration                         : 1h 29mn
    Bit rate mode                    : Constant
    Bit rate                         : 448 Kbps
    Channel(s)                       : 6 channels
    Channel positions                : Front: L C R, Surround: L R, LFE
    Sampling rate                    : 48.0 KHz
    Stream size                      : 287 MiB (6%)
    Summary:

    In Cairo on her own as she waits for her husband, Juliette finds herself caught in a whirlwind romance with his friend Tareq, a retired cop. As Tareq escorts Juliette around the city, they find themselves in the middle of a brief affair that catches them both unawares.

    Screenshots:


    [​IMG][​IMG][​IMG]
    [​IMG][​IMG][​IMG]

    [​IMG]
    Mã:
    [url]http://www.youtube.com/watch?v=orXcdLwtVRY[/url]
    [​IMG]

    Nhấn nút Cảm ơn (dưới chân bài) để thấy link!
     
    Chỉnh sửa cuối: 2/3/10
  2. tuoimoi9x

    tuoimoi9x New Member

    Tham gia ngày:
    13/8/09
    Bài viết:
    25
    Đã được cảm ơn:
    2
    Điểm thành tích:
    0
    Tiền:
    51 CR
    Ðề: Cairo Time (2009) LiMiTED.720p.Blu-ray.x264-DIMENSION

    oh bóc tem cái..................
     
    rongmay1952 cảm ơn bài này.
  3. hoapaul

    hoapaul New Member

    Tham gia ngày:
    1/2/10
    Bài viết:
    61
    Đã được cảm ơn:
    1
    Điểm thành tích:
    0
    Tiền:
    50 CR
    Ðề: Cairo Time (2009) LiMiTED.720p.Blu-ray.x264-DIMENSION

    Bóc tem rồi cho ý kiến đi! Có sub Việt chưa??? Thank!
     
  4. langdu66

    langdu66 Member

    Tham gia ngày:
    3/12/09
    Bài viết:
    91
    Đã được cảm ơn:
    4
    Điểm thành tích:
    8
    Tiền:
    801 CR
    Ðề: Cairo Time (2009) LiMiTED.720p.Blu-ray.x264-DIMENSION

    Phim coi hay, phong cãnh Cairo rất thú vị. Hoi bị đuối vì khong co' sub.
     
  5. ducho

    ducho Active Member

    Tham gia ngày:
    10/5/09
    Bài viết:
    775
    Đã được cảm ơn:
    32
    Điểm thành tích:
    28
    Tiền:
    2,361 CR
    Ðề: Cairo Time (2009) LiMiTED.720p.Blu-ray.x264-DIMENSION

    Film này đã lâu, mà vẫn chưa có sub Việt, có ai giúp giùm không?
    Cám ơn nhiều.
     
  6. hoangthinhung

    hoangthinhung New Member

    Tham gia ngày:
    18/8/14
    Bài viết:
    2
    Đã được cảm ơn:
    0
    Điểm thành tích:
    0
    Tiền:
    1 CR
    Ðề: [Tình cảm | 1 link] Cairo Time (2009) LiMiTED 720p Blu-ray x264-DIMENSION

    gfgfgfggfgfgfgfg

    ---------- Post added 18-08-2014 at 18:47 ----------

    11111111111111111111111111111111111111111111111111111111
     
    Chỉnh sửa cuối: 18/8/14
  7. cucphamdangian

    cucphamdangian Member

    Tham gia ngày:
    17/2/11
    Bài viết:
    61
    Đã được cảm ơn:
    7
    Điểm thành tích:
    8
    Tiền:
    321 CR
    Ðề: [Tình cảm | 1 link] Cairo Time (2009) LiMiTED 720p Blu-ray x264-DIMENSION

    Phim này hay không mấy pro!
     
  8. heoomoi

    heoomoi New Member

    Tham gia ngày:
    28/11/09
    Bài viết:
    21
    Đã được cảm ơn:
    5
    Điểm thành tích:
    3
    Tiền:
    50 CR
    thank!
     
    #8 +1 CR
  9. Nguyễn Cao Hùng

    Nguyễn Cao Hùng New Member

    Tham gia ngày:
    22/10/17
    Bài viết:
    1
    Đã được cảm ơn:
    1
    Điểm thành tích:
    3
    Tiền:
    1 CR
    rongmay1952 cảm ơn bài này.

Chia sẻ trang này