[Tình Cảm | 1 link ] One Day 2010 720p HDTV X264 AC3-JOMA

Thảo luận trong 'Fshare.vn' bắt đầu bởi dark_devil_90, 21/6/12.

  1. dark_devil_90

    dark_devil_90 Well-Known Member

    Tham gia ngày:
    9/12/09
    Bài viết:
    2,671
    Đã được cảm ơn:
    3,296
    One Day 2010 720p HDTV X264 AC3-JOMA

    [​IMG]


    [​IMG]

    Mã:

    
    	

    Video Format : AVC Format profile : High@L4.1 Duration : 1h 31mn Bit rate : 6 371 Kbps Width : 1 280 pixels Height : 720 pixels Display aspect ratio : 16:9 Frame rate : 29.970 fps Stream size : 4.00 GiB (91%) Audio Format : AC-3 Bit rate : 448 Kbps Channel(s) : 6 channels Channel positions : Front: L C R, Side: L R, LFE Sampling rate : 48.0 KHz Video delay : 1s 25ms Stream size : 294 MiB (7%)

    [​IMG]


    [​IMG]

    [​IMG] [​IMG] [​IMG] [​IMG] [​IMG] [​IMG] [​IMG] [​IMG]

    Mã:
    http://www.imagebam.com/gallery/p9pvt3bglkv8bdfkm3j9u9w5isdrf454/

    [​IMG]

    1 link


    [​IMG]

    Nhấn nút Cảm ơn (dưới chân bài) để thấy link!



    [​IMG]

    Mã:
    http://subscene.com/One-Day-You-yi-tian/subtitles-84125.aspx
    
    [​IMG]

    [video=youtube;bzW68A21QKk]http://www.youtube.com/watch?feature=player_embedded&v=bzW68A21QKk[/video]

    [​IMG]

    Mã:
    [B][SIZE=4][COLOR=purple]Dark_Devil_90@VT[/COLOR][/SIZE][/B]
    
     
    Chỉnh sửa cuối: 18/9/12
    thanhtung90 and fsvnhd like this.
  2. dark_devil_90

    dark_devil_90 Well-Known Member

    Tham gia ngày:
    9/12/09
    Bài viết:
    2,671
    Đã được cảm ơn:
    3,296
  3. hiepmu

    hiepmu Well-Known Member

    Tham gia ngày:
    20/12/09
    Bài viết:
    969
    Đã được cảm ơn:
    349
    Ðề: [Tình Cảm | 1 link ] One Day 2010 720p HDTV X264 AC3-JOMA

    link die, vui lòng reup nha chủ thớt
     
  4. vdung1972

    vdung1972 Well-Known Member

    Tham gia ngày:
    21/9/09
    Bài viết:
    4,152
    Đã được cảm ơn:
    499
    Giới tính:
    Nam
    Nghề nghiệp:
    Cạo giấy.
    Link trống trơn rồi, up lại dùm em với, thanks
     
  5. dark_devil_90

    dark_devil_90 Well-Known Member

    Tham gia ngày:
    9/12/09
    Bài viết:
    2,671
    Đã được cảm ơn:
    3,296
    reup link fshare
     
  6. lamhnz

    lamhnz Member

    Tham gia ngày:
    3/11/11
    Bài viết:
    207
    Đã được cảm ơn:
    3
    Ðề: [Tình Cảm | 1 link ] One Day 2010 720p HDTV X264 AC3-JOMA

    chủ thớt ơi... reup link lại với, link trống trơn àh :((
     

Chia sẻ trang này