[Tình Cảm | 1 Link] Repeat I Love You 2012 HDTV 720p x264 AC3-DWR - Ảnh Tử Ái Nhân - Trương Bá Chi

Thảo luận trong 'Fshare.vn' bắt đầu bởi ledung123, 26/5/12.

  1. ledung123

    ledung123 Về Hưu

    Tham gia ngày:
    31/10/08
    Bài viết:
    27,635
    Đã được cảm ơn:
    41,309
    Repeat I Love You 2012 HDTV 720p x264 AC3-DWR
    Ảnh Tử Ái Nhân


    [​IMG]

    [​IMG]

    Mã:
    [color="Blue"]
    Video
    ID : 1
    Format : AVC
    Format/Info : Advanced Video Codec
    Format profile : High@L4.1
    Format settings, CABAC : Yes
    Format settings, ReFrames : 9 frames
    Muxing mode : Header stripping
    Codec ID : V_MPEG4/ISO/AVC
    Duration : 1h 24mn
    
    
    Bit rate : 7 220 Kbps
    Width : 1 280 pixels
    Height : 544 pixels
    Display aspect ratio : 2.35:1
    Frame rate : 25.000 fps
    Color space : YUV
    Chroma subsampling : 4:2:0
    Bit depth : 8 bits
    Scan type : Progressive
    Bits/(Pixel*Frame) : 0.415
    Stream size : 4.17 GiB (95%)
    Writing library : x264 core 122 r2184 5c85e0a
    Encoding settings : cabac=1 / ref=9 / deblock=1:-3:-3 / analyse=0x3:0x133 / me=umh / subme=10 / psy=1 / psy_rd=1.10:0.10 / mixed_ref=1 / me_range=32 / chroma_me=1 / trellis=2 / 8x8dct=1 / cqm=0 / deadzone=21,11 / fast_pskip=0 / chroma_qp_offset=-3 / threads=12 / sliced_threads=0 / nr=0 / decimate=0 / interlaced=0 / bluray_compat=0 / constrained_intra=0 / bframes=6 / b_pyramid=2 / b_adapt=2 / b_bias=0 / direct=3 / weightb=1 / open_gop=0 / weightp=2 / keyint=250 / keyint_min=23 / scenecut=40 / intra_refresh=0 / rc_lookahead=120 / rc=2pass / mbtree=1 / bitrate=7220 / ratetol=1.0 / qcomp=0.60 / qpmin=0 / qpmax=69 / qpstep=4 / cplxblur=20.0 / qblur=0.5 / vbv_maxrate=40000 / vbv_bufsize=30000 / nal_hrd=none / ip_ratio=1.40 / aq=1:0.80
    
    Audio
    ID : 2
    Format : AC-3
    Format/Info : Audio Coding 3
    Mode extension : CM (complete main)
    Muxing mode : Header stripping
    Codec ID : A_AC3
    Duration : 1h 24mn
    Bit rate mode : Constant
    Bit rate : 192 Kbps
    Channel(s) : 2 channels
    Channel positions : Front: L R
    Sampling rate : 44.1 KHz
    Bit depth : 16 bits
    Compression mode : Lossy
    Stream size : 116 MiB (3%)
    [/color]

    [​IMG] [​IMG]
    [​IMG] [​IMG]
    [​IMG] [​IMG]

    1 link 4.36 GB
    Link tải phim

    Nhấn nút Cảm ơn (dưới chân bài) để thấy link!


     
    thanhtung90, fsvnhd and lamhnz like this.
  2. boycanada

    boycanada Well-Known Member

    Tham gia ngày:
    12/10/10
    Bài viết:
    1,150
    Đã được cảm ơn:
    50
    Ðề: [Tình Cảm | 1 Link] Repeat I Love You 2012 HDTV 720p x264 AC3-DWR - Ảnh Tử Ái Nhân - Trương Bá C

    thanks bạn nhiều.Down thử
     
  3. black_ken19

    black_ken19 Member

    Tham gia ngày:
    20/7/10
    Bài viết:
    141
    Đã được cảm ơn:
    2
    Nghề nghiệp:
    sv
    Ðề: [Tình Cảm | 1 Link] Repeat I Love You 2012 HDTV 720p x264 AC3-DWR - Ảnh Tử Ái Nhân - Trương Bá C

    coi cái này chỉ để ngắm gái
     
  4. iubnnhat

    iubnnhat New Member

    Tham gia ngày:
    10/4/10
    Bài viết:
    71
    Đã được cảm ơn:
    5
    Nghề nghiệp:
    ICT
    Nơi ở:
    Bình Thành - Thoại Sơn - An Giang
    Ðề: [Tình Cảm | 1 Link] Repeat I Love You 2012 HDTV 720p x264 AC3-DWR - Ảnh Tử Ái Nhân - Trương Bá C

    Không có sub, down về chờ thôi. Film này toàn girl đẹp.
     
  5. lehieu2310

    lehieu2310 Well-Known Member

    Tham gia ngày:
    8/11/10
    Bài viết:
    552
    Đã được cảm ơn:
    914
    Nơi ở:
    Việt Nam
    Ðề: [Tình Cảm | 1 Link] Repeat I Love You 2012 HDTV 720p x264 AC3-DWR - Ảnh Tử Ái Nhân - Trương Bá C

    Sub Việt Repeat I Love You 2012 :
    Link tải phim
    Nhấn nút Cảm ơn (dưới chân bài) để thấy link!
     
    fsvnhd cảm ơn bài này.
  6. mr_til

    mr_til New Member

    Tham gia ngày:
    20/6/12
    Bài viết:
    14
    Đã được cảm ơn:
    0
    Re: [Tình Cảm | 1 Link] Repeat I Love You 2012 HDTV 720p x264 AC3-DWR - Ảnh Tử Ái Nhân - Trương Bá C

    Gái đẹp hơn phim
     
  7. mr_til

    mr_til New Member

    Tham gia ngày:
    20/6/12
    Bài viết:
    14
    Đã được cảm ơn:
    0
    Re: [Tình Cảm | 1 Link] Repeat I Love You 2012 HDTV 720p x264 AC3-DWR - Ảnh Tử Ái Nhân - Trương Bá C

    Gái đẹp hơn phim kéo về xem thử. thx bác
     
  8. lamhnz

    lamhnz Member

    Tham gia ngày:
    3/11/11
    Bài viết:
    207
    Đã được cảm ơn:
    2
    Ðề: [Tình Cảm | 1 Link] Repeat I Love You 2012 HDTV 720p x264 AC3-DWR - Ảnh Tử Ái Nhân - Trương Bá C

    thanks chủ thớt ^^. film hay lém :)
     
  9. lamhnz

    lamhnz Member

    Tham gia ngày:
    3/11/11
    Bài viết:
    207
    Đã được cảm ơn:
    2
    Ðề: [Tình Cảm | 1 Link] Repeat I Love You 2012 HDTV 720p x264 AC3-DWR - Ảnh Tử Ái Nhân - Trương Bá C

    hix sao bấm vô Lấy Link + Thích ko có tác dụng gì hết trơn vậy :(
     
  10. maseratiman

    maseratiman New Member

    Tham gia ngày:
    2/5/12
    Bài viết:
    91
    Đã được cảm ơn:
    0
    Re: [Tình Cảm | 1 Link] Repeat I Love You 2012 HDTV 720p x264 AC3-DWR - Ảnh Tử Ái Nhân - Trương Bá C

    có nhìu cảnh nóng không các bác
     

Chia sẻ trang này